NGƯỜI VẬN CHUYỂN PHẦN 4 (The Transporter Refueled)

Posted by

Nguoi Van Chuyen 4 (2015) 1h 36min | Action, Adventure, Crime | 4 September 2015 (Vietnam) Summary: In the south of France, former special-ops mercenary Frank Martin enters into a game of chess with a femme-fatale and her three sidekicks who are looking for revenge against a sinister Russian kingpin.
Countries: France, China, Belgium, MonacoLanguages: English, Russian, French
DVD9DVD9 ViEDVD5DVD5 ViE

Hệ: NTSC
Tỷ lệ: 16:9
Âm thanh: Anh (5.1), Bồ Đào Nha (5.1), Tây Ban Nha (5.1)
Phụ đề: Anh, Bồ Đào Nha, Tây Ban Nha
Thời lượng: 1:41:04
Menu: Có
Extra: Có
DOWNLOAD

Hệ: NTSC
Tỷ lệ: 16:9
Âm thanh: Anh (5.1), Bồ Đào Nha (5.1), Tây Ban Nha (5.1), Việt (5.1)
Phụ đề: Anh, Bồ Đào Nha, Tây Ban Nha, Việt
Thời lượng: 1:41:04
Menu: Có
Extra: Có
DOWNLOAD

Hệ: NTSC
Tỷ lệ: 16:9
Âm thanh: Anh (5.1), Bồ Đào Nha (5.1), Tây Ban Nha (5.1)
Phụ đề: Anh, Bồ Đào Nha, Tây Ban Nha
Thời lượng: 1:41:04
Menu: Có
Extra: Có
DOWNLOAD

Hệ: NTSC
Tỷ lệ: 16:9
Âm thanh: Anh (5.1), Việt (5.1)
Phụ đề: Anh, Bồ Đào Nha, Tây Ban Nha, Việt
Thời lượng: 1:41:04
Menu: Có
Extra: Có
DOWNLOAD

Transporter.2015.ViE.1080p.BluRay.DTS.x264.mkv
General
Name: Transporter.2015.ViE.1080p.BluRay.DTS.x264.mkv
Format: Matroska (Version 4)
Duration: 01:35:54.240
Size: 12.78 GiB
Bitrate: 19.1 Mb/s
Frame rate: 23.976

Video
Format: AVC (High@L4.1)
Resolution: 1920 x 800 (17.0 Mb/s)
Ratio: 2.40:1
Stream size: 11.4 GiB (89%)

+ Audio #0: English / DTS (A_DTS / DTS)
Duration: 01:35:54.133
Bit rate: 1 509 kb/s (CBR) / 6 channels
Sampling rate: 48.0 kHz
Stream size: 1.01 GiB (8%)

+ Audio #1: Vietnamese / Dolby Digital (A_AC3 / AC-3)
Duration: 01:35:54.240
Bit rate: 512 kb/s (CBR) / 2 channels
Sampling rate: 48.0 kHz
Stream size: 351 MiB (3%)

+ Text #0: English
Format: UTF-8
Stream size: 39.6 KiB (0%)

+ Text #1: English
Format: UTF-8
Stream size: 36.3 KiB (0%)

+ Text #2: Spanish
Format: UTF-8
Stream size: 33.8 KiB (0%)

+ Text #3: English
Format: UTF-8
Stream size: 435 Bytes (0%)

+ Text #4: Vietnamese
Format: UTF-8
Stream size: 38.0 KiB (0%)

DOWNLOAD

The.Transporter.Refueled.2015.ViE.1080p.BluRay.DTS.x264-VietHD.mkv
General
Name: The.Transporter.Refueled.2015.ViE.1080p.BluRay.DTS.x264-VietHD.mkv
Format: Matroska (Version 4)
Duration: 01:35:54.176
Size: 12.86 GiB
Bitrate: 19.2 Mb/s
Frame rate: 23.976

Video
Format: AVC (High@L4.1)
Resolution: 1920 x 800 (17.0 Mb/s)
Ratio: 2.40:1
Stream size: 11.4 GiB (89%)

+ Audio #0: English / DTS (A_DTS / DTS)
Duration: 01:35:54.133
Bit rate: 1 509 kb/s (CBR) / 6 channels
Sampling rate: 48.0 kHz
Stream size: 1.01 GiB (8%)

+ Audio #1: Vietnamese / Dolby Digital (A_AC3 / AC-3)
Duration: 01:35:54.176
Bit rate: 640 kb/s (CBR) / 6 channels
Sampling rate: 48.0 kHz
Stream size: 439 MiB (3%)

+ Text #0: English
Format: UTF-8
Stream size: 39.6 KiB (0%)

+ Text #1: English
Format: UTF-8
Stream size: 36.3 KiB (0%)

+ Text #2: Spanish
Format: UTF-8
Stream size: 33.8 KiB (0%)

+ Text #3: English
Format: UTF-8
Stream size: 435 Bytes (0%)

+ Text #4: Romanian
Format: UTF-8
Stream size: 31.7 KiB (0%)

DOWNLOAD

The Transporter Refueled 2015 ViE 720p BluRay DTS x264-TayTO.mkv
General
Name: The Transporter Refueled 2015 ViE 720p BluRay DTS x264-TayTO.mkv
Format: Matroska (Version 4)
Duration: 01:35:54.176
Size: 7.080 GiB
Bitrate: 10.6 Mb/s
Frame rate: 23.976

Video
Format: AVC (High@L4.1)
Resolution: 1280 x 534 (8 417 kb/s)
Ratio: 2.40:1
Stream size: 5.64 GiB (80%)

+ Audio #0: Vietnamese / Dolby Digital (A_AC3 / AC-3)
Duration: 01:35:54.176
Bit rate: 640 kb/s (CBR) / 6 channels
Sampling rate: 48.0 kHz
Stream size: 439 MiB (6%)

+ Audio #1: English / DTS (A_DTS / DTS)
Duration: 01:35:54.133
Bit rate: 1 509 kb/s (CBR) / 6 channels
Sampling rate: 48.0 kHz
Stream size: 1.01 GiB (14%)

+ Text #0: English
Format: UTF-8
Stream size: 467 Bytes (0%)

+ Text #1: English
Format: UTF-8
Stream size: 37.6 KiB (0%)

+ Text #2: English
Format: UTF-8
Stream size: 40.9 KiB (0%)

+ Text #3: Spanish
Format: UTF-8
Stream size: 34.7 KiB (0%)

+ Text #4: Vietnamese
Format: UTF-8
Stream size: 38.0 KiB (0%)

DOWNLOAD

Transporter.Refueled.2015.ViE.mHD.Bluray.DD5.1.x264-TRiM.mkv
General
Name: Transporter.Refueled.2015.ViE.mHD.Bluray.DD5.1.x264-TRiM.mkv
Format: Matroska (Version 4)
Duration: 01:35:54.176
Size: 2.743 GiB
Bitrate: 4 094 kb/s
Frame rate: 23.976

Video
Format: AVC (High@L4.1)
Resolution: 1280 x 534 (2 811 kb/s)
Ratio: 2.40:1
Stream size: 1.88 GiB (69%)

+ Audio #0: Vietnamese / Dolby Digital (A_AC3 / AC-3)
Duration: 01:35:54.176
Bit rate: 640 kb/s (CBR) / 6 channels
Sampling rate: 48.0 kHz
Stream size: 439 MiB (16%)

+ Audio #1: English / Dolby Digital (A_AC3 / AC-3)
Duration: 01:35:54.144
Bit rate: 640 kb/s (CBR) / 6 channels
Sampling rate: 48.0 kHz
Stream size: 439 MiB (16%)

+ Text #0: Vietnamese
Format: UTF-8
Stream size: 38.2 KiB (0%)

+ Text #1: Vietnamese
Format: UTF-8
Stream size: 38.0 KiB (0%)

+ Text #2: English
Format: UTF-8
Stream size: 40.9 KiB (0%)

+ Text #3: English
Format: UTF-8
Stream size: 467 Bytes (0%)

+ Text #4: English
Format: UTF-8
Stream size: 37.6 KiB (0%)

+ Text #5: English
Format: UTF-8
Stream size: 40.9 KiB (0%)

+ Text #6: Spanish
Format: UTF-8
Stream size: 34.7 KiB (0%)

DOWNLOAD

One comment

  1. Transporter.2015.ViE.1080p.BluRay.DTS.x264.mkv
    The.Transporter.Refueled.2015.ViE.1080p.BluRay.DTS.x264-VietHD.mkv
    The Transporter Refueled 2015 ViE 720p BluRay DTS x264-TayTO.mkv
    Transporter.Refueled.2015.ViE.mHD.Bluray.DD5.1.x264-TRiM.mkv

Gửi phản hồi