SA VÀO LƯỚI TÌNH (Aloha)

Posted by

Aloha (2015) 1h 45min | Comedy, Drama, Romance | 29 May 2015 (USA) Summary: A celebrated military contractor returns to the site of his greatest career triumphs and reconnects with a long-ago love while unexpectedly falling for the hard-charging Air Force watch-dog assigned to him.
Countries: USALanguages: English, Hawaiian, Russian
DVD5

Hệ: NTSC
Tỷ lệ: 16:9
Âm thanh: Anh (5.1)
Phụ đề: Anh, Pháp, Tây Ban Nha
Thời lượng: 1:44:30
Menu: Có
Extra: Có
DOWNLOAD

[collapse]
DVD5 ViE

Hệ: NTSC
Tỷ lệ: 16:9
Âm thanh: Anh (5.1), Việt (2.0)
Phụ đề: Anh, Pháp, Tây Ban Nha, Việt
Thời lượng: 1:44:31
Menu: Có
Extra: Có
DOWNLOAD

[collapse]
Aloha.2015.ViE.mHD.BluRay.DD5.1.x264-TRiM.mkv

General
Name: Aloha.2015.ViE.mHD.BluRay.DD5.1.x264-TRiM.mkv
Format: Matroska (Version 4)
Duration: 01:44:38.304
Size: 2.651 GiB
Bitrate: 3 627 kb/s
Frame rate: 23.976

Video
Format: AVC (High@L4.1)
Resolution: 1280 x 690 (2 800 kb/s)
Ratio: 1.85:1
Stream size: 2.05 GiB (77%)

+ Audio #0: English / Dolby Digital (A_AC3 / AC-3)
Duration: 01:44:38.304
Bit rate: 640 kb/s (CBR) / 6 channels
Sampling rate: 48.0 kHz
Stream size: 479 MiB (18%)

+ Audio #1: Vietnamese / Dolby Digital (A_AC3 / AC-3)
Duration: 01:40:40.832
Bit rate: 192 kb/s (CBR) / 2 channels
Sampling rate: 48.0 kHz
Stream size: 138 MiB (5%)

+ Text #0: English
Format: UTF-8
Stream size: 46.6 KiB (0%)

+ Text #1: Vietnamese
Format: ASS
Stream size: 90.8 KiB (0%)

DOWNLOAD

[collapse]

One comment

Gửi phản hồi