GIỚI THƯỢNG LƯU (Café Society)

Posted by

Café Society (2016) 1h 36min | Comedy, Drama, Romance | 5 August 2016 (USA) Summary: In the 1930s, a Bronx native moves to Hollywood and falls in love with a young woman who is seeing a married man.
Countries: USALanguages: English, Hebrew
DVD5

Hệ: NTSC
Tỷ lệ: 16:9
Âm thanh: Anh (5.1), Tây Ban Nha (5.1)
Phụ đề: Anh, Tây Ban Nha
Thời lượng: 1:36:18
Menu: Có
Extra: Có
DOWNLOAD

[collapse]
DVD5 ViE

Hệ: NTSC
Tỷ lệ: 16:9
Âm thanh: Anh (5.1), Tây Ban Nha (5.1), Việt (5.1)
Phụ đề: Anh, Tây Ban Nha, Việt
Thời lượng: 1:36:17
Menu: Có
Extra: Có
DOWNLOAD

[collapse]
Cafe Society 2016 ViE 1080p BluRay DTS x264-VietHD.mkv

General
Name: Cafe Society 2016 ViE 1080p BluRay DTS x264-VietHD.mkv
Format: Matroska (Version 4)
Duration: 01:36:05.579
Size: 11.73 GiB
Bitrate: 17.5 Mb/s
Frame rate: 23.976

Video
Format: AVC (High@L4.1)
Resolution: 1920 x 960 (14.5 Mb/s)
Ratio: 2.000
Stream size: 9.70 GiB (83%)

+ Audio #0: Vietnamese / DTS (A_DTS / DTS)
Duration: 01:36:05.579
Bit rate: 1 509 kb/s (CBR) / 6 channels
Sampling rate: 48.0 kHz
Stream size: 1.01 GiB (9%)

+ Audio #1: English / DTS (A_DTS / DTS)
Duration: 01:36:05.558
Bit rate: 1 509 kb/s (CBR) / 6 channels
Sampling rate: 48.0 kHz
Stream size: 1.01 GiB (9%)

+ Text #0: English
Format: UTF-8
Stream size: 67.4 KiB (0%)

+ Text #1: French
Format: UTF-8
Stream size: 58.6 KiB (0%)

+ Text #2: Spanish
Format: UTF-8
Stream size: 53.2 KiB (0%)

DOWNLOAD

[collapse]
Cafe Society.2016.ViE.720p.BluRay.DTS.x264-DON.mkv

General
Name: Cafe Society.2016.ViE.720p.BluRay.DTS.x264-DON.mkv
Format: Matroska (Version 4)
Duration: 01:36:05.579
Size: 5.855 GiB
Bitrate: 8 723 kb/s
Frame rate: 23.976

Video
Format: AVC (High@L4.1)
Resolution: 1280 x 640 (5 700 kb/s)
Ratio: 2.000
Stream size: 3.83 GiB (65%)

+ Audio #0: Vietnamese / DTS (A_DTS / DTS)
Duration: 01:36:05.579
Bit rate: 1 509 kb/s (CBR) / 6 channels
Sampling rate: 48.0 kHz
Stream size: 1.01 GiB (17%)

+ Audio #1: English / DTS (A_DTS / DTS)
Duration: 01:36:05.558
Bit rate: 1 509 kb/s (CBR) / 6 channels
Sampling rate: 48.0 kHz
Stream size: 1.01 GiB (17%)

+ Text #0: English
Format: UTF-8
Stream size: 49.5 KiB (0%)

DOWNLOAD

[collapse]
Café Society 2016 ViE mHD BluRay DD5.1 x264-TRiM-JadViE.mkv

General
Name: Café Society 2016 ViE mHD BluRay DD5.1 x264-[TRiM-JadViE].mkv
Format: Matroska (Version 4)
Duration: 01:36:05.632
Size: 2.393 GiB
Bitrate: 3 565 kb/s
Frame rate: 23.976

Video
Format: AVC (High@L4.1)
Resolution: 1280 x 640 (2 282 kb/s)
Ratio: 2.000
Stream size: 1.53 GiB (64%)

+ Audio #0: Vietnamese / Dolby Digital (A_AC3 / AC-3)
Duration: 01:36:05.632
Bit rate: 640 kb/s (CBR) / 6 channels
Sampling rate: 48.0 kHz
Stream size: 440 MiB (18%)

+ Audio #1: English / Dolby Digital (A_AC3 / AC-3)
Duration: 01:36:05.568
Bit rate: 640 kb/s (CBR) / 6 channels
Sampling rate: 48.0 kHz
Stream size: 440 MiB (18%)

+ Text #0: English
Format: UTF-8
Stream size: 67.3 KiB (0%)

DOWNLOAD

[collapse]

Gửi phản hồi