KHI CÁC GÓA PHỤ HÀNH ĐỘNG (Widows)

Posted by

Khi Các Góa Phu Hành Dông (2018) 2h 9min | Crime, Drama, Thriller | 7 December 2018 (Vietnam) Summary: Set in contemporary Chicago, amid a time of turmoil, four women with nothing in common except a debt left behind by their dead husbands' criminal activities, take fate into their own hands, and conspire to forge a future on their own terms.
Countries: UK, USALanguages: English, Spanish, Polish
DVD5

Hệ: NTSC
Tỷ lệ: 16:9
Âm thanh: Anh (5.1), Pháp (2.0), Tây Ban Nha (2.0)
Phụ đề: Anh, Pháp, Tây Ban Nha
Thời lượng: 2:09:26
Menu: Có
Extra: Có
DOWNLOAD

[collapse]
DVD5 ViE

Hệ: NTSC
Tỷ lệ: 16:9
Âm thanh: Anh (5.1), Việt (5.1)
Phụ đề: Anh, Pháp, Tây Ban Nha, Việt
Thời lượng: 2:09:25
Menu: Có
Extra: Có
DOWNLOAD

[collapse]
Widows 2018 ViE 2160p UHD BluRay HDR TrueHD 7.1 x265 10bit-HDS.mkv

General
Name: Widows 2018 ViE 2160p UHD BluRay HDR TrueHD 7.1 x265 10bit-HDS.mkv
Format: Matroska (Version 4)
Duration: 02:09:34.091
Size: 21.12 GiB
Bitrate: 23.3 Mb/s
Frame rate: 23.976

Video
Format: HEVC (Main 10@L5.1@High)
Resolution: 3840 x 1604 (17.4 Mb/s)
Ratio: 2.40:1
Stream size: 15.7 GiB (74%)

+ Audio #0: Vietnamese / DTS (A_DTS / DTS)
Duration: 02:09:34.091
Bit rate: 1 509 kb/s (CBR) / 6 channels
Sampling rate: 48.0 kHz
Stream size: 1.37 GiB (6%)

+ Audio #1: English / Dolby TrueHD with Dolby Atmos (A_TRUEHD / MLP FBA 16-ch)
Duration: 02:09:34.060
Bit rate: 4 218 kb/s (VBR) / 8 channels
Sampling rate: 48.0 kHz
Stream size: 3.82 GiB (18%)

+ Text #0: Vietnamese
Format: UTF-8
Stream size: 71.6 KiB (0%)

+ Text #1: English
Format: UTF-8
Stream size: 58.4 KiB (0%)

+ Text #2: English
Format: UTF-8
Stream size: 65.1 KiB (0%)

+ Text #3: Vietnamese
Format: PGS
Stream size: 61.6 MiB (0%)

+ Text #4: English
Format: PGS
Stream size: 41.1 MiB (0%)

+ Text #5: Chinese
Format: PGS
Stream size: 34.7 MiB (0%)

+ Text #6: Chinese
Format: PGS
Stream size: 38.2 MiB (0%)

+ Text #7: Chinese
Format: PGS
Stream size: 24.6 MiB (0%)

+ Text #8: Chinese
Format: PGS
Stream size: 25.6 MiB (0%)

+ Text #9: Chinese
Format: PGS
Stream size: 42.0 MiB (0%)

+ Text #10: Chinese
Format: PGS
Stream size: 43.0 MiB (0%)

DOWNLOAD

[collapse]
Widows.2018.ViE.1080p.10bit.BluRay.8CH.x265.HEVC-PSA.mkv

General
Name: Widows.2018.ViE.1080p.10bit.BluRay.8CH.x265.HEVC-PSA.mkv
Format: Matroska (Version 4)
Duration: 02:09:34.272
Size: 2.185 GiB
Bitrate: 2 415 kb/s
Frame rate: 23.976

Video
Format: HEVC (Main 10@L4@Main)
Resolution: 1920 x 808 (2 001 kb/s)
Ratio: 2.40:1
Stream size: 1.81 GiB (83%)

+ Audio #0: Vietnamese / MPEG Audio (A_MPEG/L3 / MPEG Audio)
Duration: 02:09:34.272
Bit rate: 128 kb/s (VBR) / 2 channels
Sampling rate: 48.0 kHz
Stream size: 119 MiB (5%)

+ Audio #1: English / HE-AAC (A_AAC-2 / AAC LC SBR)
Duration: 02:09:34.037
Bit rate: 288 kb/s () / 8 channels
Sampling rate: 48.0 kHz
Stream size: 262 MiB (12%)

+ Text #0: Vietnamese
Format: UTF-8
Stream size: 72.2 KiB (0%)

+ Text #1: English
Format: UTF-8
Stream size: 58.8 KiB (0%)

+ Text #2: Vietnamese
Format: UTF-8
Stream size: 71.6 KiB (0%)

DOWNLOAD

[collapse]
Widows 2018 ViE 1080p BluRay DTS x264-HDS.mkv

General
Name: Widows 2018 ViE 1080p BluRay DTS x264-HDS.mkv
Format: Matroska (Version 4)
Duration: 02:09:34.091
Size: 13.40 GiB
Bitrate: 14.8 Mb/s
Frame rate: 23.976

Video
Format: AVC (High@L4.1)
Resolution: 1920 x 804 (11.7 Mb/s)
Ratio: 2.40:1
Stream size: 10.6 GiB (79%)

+ Audio #0: Vietnamese / DTS (A_DTS / DTS)
Duration: 02:09:34.091
Bit rate: 1 509 kb/s (CBR) / 6 channels
Sampling rate: 48.0 kHz
Stream size: 1.37 GiB (10%)

+ Audio #1: English / DTS (A_DTS / DTS)
Duration: 02:09:34.059
Bit rate: 1 509 kb/s (CBR) / 6 channels
Sampling rate: 48.0 kHz
Stream size: 1.37 GiB (10%)

+ Text #0: Vietnamese
Format: UTF-8
Stream size: 71.6 KiB (0%)

+ Text #1: English
Format: UTF-8
Stream size: 58.4 KiB (0%)

+ Text #2: English
Format: UTF-8
Stream size: 65.1 KiB (0%)

+ Text #3: Vietnamese
Format: PGS
Stream size: 61.6 MiB (0%)

+ Text #4: English
Format: PGS
Stream size: 42.0 MiB (0%)

+ Text #5: Chinese
Format: PGS
Stream size: 24.6 MiB (0%)

+ Text #6: Chinese
Format: PGS
Stream size: 25.6 MiB (0%)

+ Text #7: Chinese
Format: PGS
Stream size: 42.0 MiB (0%)

+ Text #8: Chinese
Format: PGS
Stream size: 43.0 MiB (0%)

DOWNLOAD

[collapse]
Widows.2018.ViE.mHD.BluRay.DD5.1.x264-TRiM.mkv

General
Name: Widows.2018.ViE.mHD.BluRay.DD5.1.x264-TRiM.mkv
Format: Matroska (Version 4)
Duration: 02:09:34.112
Size: 3.826 GiB
Bitrate: 4 227 kb/s
Frame rate: 23.976

Video
Format: AVC (High@L4.1)
Resolution: 1280 x 536 (2 911 kb/s)
Ratio: 2.40:1
Stream size: 2.63 GiB (69%)

+ Audio #0: Vietnamese / Dolby Digital (A_AC3 / AC-3)
Duration: 02:09:34.112
Bit rate: 640 kb/s (CBR) / 6 channels
Sampling rate: 48.0 kHz
Stream size: 593 MiB (15%)

+ Audio #1: English / Dolby Digital (A_AC3 / AC-3)
Duration: 02:09:34.080
Bit rate: 640 kb/s (CBR) / 6 channels
Sampling rate: 48.0 kHz
Stream size: 593 MiB (15%)

+ Text #0: English
Format: UTF-8
Stream size: 58.7 KiB (0%)

+ Text #1: Vietnamese
Format: UTF-8
Stream size: 71.6 KiB (0%)

+ Text #2: English
Format: PGS
Stream size: 6.79 MiB (0%)

+ Text #3: Vietnamese
Format: PGS
Stream size: 25.5 MiB (1%)

DOWNLOAD

[collapse]
Widows.2018.ViE.mHD.BluRay.DD5.1.x264-TRim.mkv

General
Name: Widows.2018.ViE.mHD.BluRay.DD5.1 (1).x264-TRim.mkv
Format: Matroska (Version 4)
Duration: 02:09:34.272
Size: 2.751 GiB
Bitrate: 3 040 kb/s
Frame rate: 23.976

Video
Format: AVC (High@L4.1)
Resolution: 1280 x 536 (2 911 kb/s)
Ratio: 2.40:1
Stream size: 2.63 GiB (96%)

+ Audio #0: / MPEG Audio (A_MPEG/L3 / MPEG Audio)
Duration: 02:09:34.272
Bit rate: 128 kb/s (VBR) / 2 channels
Sampling rate: 48.0 kHz
Stream size: 119 MiB (4%)

+ Text #0: English
Format: UTF-8
Stream size: 58.7 KiB (0%)

DOWNLOAD

[collapse]

One comment

Gửi phản hồi