TRỞ VỀ TƯƠNG LAI (Back to the Future)

Posted by

Back to the Future (1985) 1h 56min | Adventure, Comedy, Sci-Fi | 3 July 1985 (USA) Summary: Marty McFly, a 17-year-old high school student, is accidentally sent thirty years into the past in a time-traveling DeLorean invented by his close friend, the maverick scientist Doc Brown.
Countries: USALanguages: English
DVD5

Hệ: NTSC
Tỷ lệ: 16:9
Âm thanh: Anh (5.1), Pháp (5.1), Tây Ban Nha (5.1)
Phụ đề: Anh, Pháp, Tây Ban Nha
Thời lượng: 1:56:00
Menu: Có
Extra: Có
DOWNLOAD

[collapse]
DVD5 ViE

Hệ: NTSC
Tỷ lệ: 16:9
Âm thanh: Anh (5.1), Việt (5.1)
Phụ đề: Anh, Pháp, Tây Ban Nha, Việt
Thời lượng: 1:55:59
Menu: Có
Extra: Có
DOWNLOAD

[collapse]
Back to the Future 1985 ViE mHD BluRay DD5.1 x264-EPiK.mkv

General
Name: Back to the Future 1985 ViE mHD BluRay DD5.1 x264-EPiK.mkv
Format: Matroska (Version 4)
Duration: 01:56:01.056
Size: 3.215 GiB
Bitrate: 3 967 kb/s
Frame rate: 23.976

Video
Format: AVC (High@L4.1)
Resolution: 1280 x 694 (3 068 kb/s)
Ratio: 1.85:1
Stream size: 2.49 GiB (77%)

+ Audio #0: Vietnamese / Dolby Digital (A_AC3 / AC-3)
Duration: 01:56:01.056
Bit rate: 448 kb/s (CBR) / 6 channels
Sampling rate: 48.0 kHz
Stream size: 372 MiB (11%)

+ Audio #1: English / Dolby Digital (A_AC3 / AC-3)
Duration: 01:56:01.024
Bit rate: 448 kb/s (CBR) / 6 channels
Sampling rate: 48.0 kHz
Stream size: 372 MiB (11%)

+ Text #0: Vietnamese
Format: UTF-8
Stream size: 59.7 KiB (0%)

+ Text #1: English
Format: UTF-8
Stream size: 52.7 KiB (0%)

DOWNLOAD

[collapse]

Gửi phản hồi