TRỞ VỀ TƯƠNG LAI phần II (Back to the Future Part II)

Posted by

Back to the Future Part II (1989) 1h 48min | Adventure, Comedy, Sci-Fi | 22 November 1989 (USA) Summary: After visiting 2015, Marty McFly must repeat his visit to 1955 to prevent disastrous changes to 1985...without interfering with his first trip.
Countries: USALanguages: English
DVD5

Hệ: NTSC
Tỷ lệ: 16:9
Âm thanh: Anh (5.1), Pháp (5.1), Tây Ban Nha (5.1)
Phụ đề: Anh, Pháp, Tây Ban Nha
Thời lượng: 1:48:01
Menu: Có
Extra: Có
DOWNLOAD

[collapse]
DVD5 ViE

Hệ: NTSC
Tỷ lệ: 16:9
Âm thanh: Anh (5.1), Việt (5.1)
Phụ đề: Anh, Pháp, Tây Ban Nha, Việt
Thời lượng: 1:47:59
Menu: Có
Extra: Có
DOWNLOAD

[collapse]
Back to the Future Part II 1989 ViE mHD BluRay DD5 1 x264-EPiK.mkv

General
Name: Back to the Future Part II 1989 ViE mHD BluRay DD5 1 x264-EPiK.mkv
Format: Matroska (Version 4)
Duration: 01:47:59.360
Size: 2.397 GiB
Bitrate: 3 178 kb/s
Frame rate: 23.976

Video
Format: AVC (High@L4.1)
Resolution: 1280 x 694 (2 279 kb/s)
Ratio: 1.85:1
Stream size: 1.72 GiB (72%)

+ Audio #0: Vietnamese / Dolby Digital (A_AC3 / AC-3)
Duration: 01:47:59.360
Bit rate: 448 kb/s (CBR) / 6 channels
Sampling rate: 48.0 kHz
Stream size: 346 MiB (14%)

+ Audio #1: English / Dolby Digital (A_AC3 / AC-3)
Duration: 01:47:59.328
Bit rate: 448 kb/s (CBR) / 6 channels
Sampling rate: 48.0 kHz
Stream size: 346 MiB (14%)

+ Text #0: Vietnamese
Format: UTF-8
Stream size: 58.9 KiB (0%)

+ Text #1: English
Format: UTF-8
Stream size: 48.2 KiB (0%)

DOWNLOAD

[collapse]

Gửi phản hồi