NHÀ CÓ MỘT TÁ CON (Cheaper by the Dozen)

Posted by

Cheaper by the Dozen (2003) 1h 38min | Comedy, Family | 25 December 2003 (USA) Summary: With his wife doing a book tour, a father of twelve must handle a new job and his unstable brood.
Countries: USALanguages: English
DVD9

Hệ: NTSC
Tỷ lệ: 16:9
Âm thanh: Anh (5.1), Bồ Đào Nha (2.0), Tây Ban Nha (2.0)
Phụ đề: Anh, Bồ Đào Nha, Tây Ban Nha
Thời lượng: 1:38:35
Menu: Có
Extra: Có
DOWNLOAD

[collapse]
DVD9 ViE

Hệ: NTSC
Tỷ lệ: 16:9
Âm thanh: Anh (5.1), Bồ Đào Nha (2.0), Tây Ban Nha (2.0), Việt (2.0)
Phụ đề: Anh, Bồ Đào Nha, Tây Ban Nha, Việt
Thời lượng: 1:38:34
Menu: Có
Extra: Có
DOWNLOAD

[collapse]
DVD5

Hệ: NTSC
Tỷ lệ: 16:9
Âm thanh: Anh (5.1), Bồ Đào Nha (2.0), Tây Ban Nha (2.0)
Phụ đề: Anh, Bồ Đào Nha, Tây Ban Nha
Thời lượng: 1:38:35
Menu: Có
Extra: Có
DOWNLOAD

[collapse]
DVD5 ViE

Hệ: NTSC
Tỷ lệ: 16:9
Âm thanh: Anh (5.1), Việt (2.0)
Phụ đề: Anh, Bồ Đào Nha, Tây Ban Nha, Việt
Thời lượng: 1:38:34
Menu: Có
Extra: Có
DOWNLOAD

[collapse]
Cheaper.by.the.Dozen.2003.ViE.1080p.WEB-DL.DD5.1.x264-HDClub.mkv

General
Name: Cheaper.by.the.Dozen.2003.ViE.1080p.WEB-DL.DD5.1.x264-HDClub.mkv
Format: Matroska (Version 4)
Duration: 01:39:05.404
Size: 4.976 GiB
Bitrate: 7 190 kb/s
Frame rate: 23.976

Video
Format: AVC (Main@L4)
Resolution: 1912 x 1036 (5 210 kb/s)
Ratio: 1.85:1
Stream size: 3.61 GiB (72%)

+ Audio #0: Vietnamese / Dolby Digital (A_AC3 / AC-3)
Duration: 01:38:43.488
Bit rate: 640 kb/s (CBR) / 2 channels
Sampling rate: 48.0 kHz
Stream size: 452 MiB (9%)

+ Audio #1: Russian / Dolby Digital (A_AC3 / AC-3)
Duration: 01:38:43.392
Bit rate: 384 kb/s (CBR) / 6 channels
Sampling rate: 48.0 kHz
Stream size: 271 MiB (5%)

+ Audio #2: Russian / Dolby Digital (A_AC3 / AC-3)
Duration: 01:38:43.392
Bit rate: 384 kb/s (CBR) / 6 channels
Sampling rate: 48.0 kHz
Stream size: 271 MiB (5%)

+ Audio #3: Ukrainian / Dolby Digital (A_AC3 / AC-3)
Duration: 01:38:43.392
Bit rate: 192 kb/s (CBR) / 2 channels
Sampling rate: 48.0 kHz
Stream size: 136 MiB (3%)

+ Audio #4: English / Dolby Digital (A_AC3 / AC-3)
Duration: 01:38:43.392
Bit rate: 384 kb/s (CBR) / 6 channels
Sampling rate: 48.0 kHz
Stream size: 271 MiB (5%)

+ Text #0: Russian
Format: UTF-8
Stream size: 64.1 KiB (0%)

DOWNLOAD

[collapse]

Gửi phản hồi