THỰC TẠI HOÀN MỸ (The Spectacular Now)

Posted by

The Spectacular Now (2013) 1h 35min | Comedy, Drama, Romance | 13 September 2013 (USA) Summary: A hard-partying high school senior's philosophy on life changes when he meets the not-so-typical "nice girl."
Countries: USALanguages: English
DVD5

Hệ: NTSC
Tỷ lệ: 16:9
Âm thanh: Anh (5.1), Tây Ban Nha (5.1)
Phụ đề: Anh, Tây Ban Nha
Thời lượng: 1:34:56
Menu: Có
Extra: Không
DOWNLOAD

[collapse]
DVD5 ViE

Hệ: NTSC
Tỷ lệ: 16:9
Âm thanh: Anh (5.1), Việt (5.1)
Phụ đề: Anh, Tây Ban Nha, Việt
Thời lượng: 1:34:57
Menu: Có
Extra: Không
DOWNLOAD

[collapse]
The.Spectacular.Now.2013.ViE.1080p.BluRay.DTS.x264-EbP.VAV.mkv

General
Name: The.Spectacular.Now.2013.ViE.1080p.BluRay.DTS.x264-EbP.VAV.mkv
Format: Matroska (Version 4)
Duration: 01:35:03.542
Size: 14.59 GiB
Bitrate: 22.0 Mb/s
Frame rate: 23.976

Video
Format: AVC (High@L4.1)
Resolution: 1920 x 800 (18.5 Mb/s)
Ratio: 2.40:1
Stream size: 12.3 GiB (84%)

+ Audio #0: Vietnamese / DTS (A_DTS / DTS)
Duration: 01:35:03.542
Bit rate: 1 510 kb/s (CBR) / 6 channels
Sampling rate: 48.0 kHz
Stream size: 1.00 GiB (7%)

+ Audio #1: English / DTS (A_DTS / DTS)
Duration: 01:35:03.542
Bit rate: 1 509 kb/s (CBR) / 6 channels
Sampling rate: 48.0 kHz
Stream size: 1.00 GiB (7%)

+ Text #0: French
Format: UTF-8
Stream size:

+ Text #1: English
Format: UTF-8
Stream size:

+ Text #2: Vietnamese
Format: UTF-8
Stream size:

DOWNLOAD

[collapse]
The.Spectacular.Now.2013.ViE.720p.BluRay.DTS.x264-CtrlHD.VAV.mkv

General
Name: The.Spectacular.Now.2013.ViE.720p.BluRay.DTS.x264-CtrlHD.VAV.mkv
Format: Matroska (Version 4)
Duration: 01:35:03.573
Size: 7.308 GiB
Bitrate: 11.0 Mb/s
Frame rate: 23.976

Video
Format: AVC (High@L4.1)
Resolution: 1280 x 534 (7 768 kb/s)
Ratio: 2.40:1
Stream size: 5.16 GiB (71%)

+ Audio #0: Vietnamese / DTS (A_DTS / DTS)
Duration: 01:35:03.573
Bit rate: 1 510 kb/s (CBR) / 6 channels
Sampling rate: 48.0 kHz
Stream size: 1.00 GiB (14%)

+ Audio #1: English / DTS (A_DTS / DTS)
Duration: 01:35:03.573
Bit rate: 1 509 kb/s (CBR) / 6 channels
Sampling rate: 48.0 kHz
Stream size: 1.00 GiB (14%)

+ Text #0: French
Format: UTF-8
Stream size:

+ Text #1: English
Format: UTF-8
Stream size:

+ Text #2: Vietnamese
Format: UTF-8
Stream size:

DOWNLOAD

[collapse]
The.Spectacular.Now.2013.ViE.mHD.Bluray.DD5.1.x264-EPiK.VAV.mkv

General
Name: The.Spectacular.Now.2013.ViE.mHD.Bluray.DD5.1.x264-EPiK.VAV.mkv
Format: Matroska (Version 4)
Duration: 01:35:03.552
Size: 2.800 GiB
Bitrate: 4 218 kb/s
Frame rate: 23.976

Video
Format: AVC (High@L4.1)
Resolution: 1280 x 534 (2 854 kb/s)
Ratio: 2.40:1
Stream size: 1.89 GiB (68%)

+ Audio #0: Vietnamese / Dolby Digital (A_AC3 / AC-3)
Duration: 01:35:03.552
Bit rate: 640 kb/s (CBR) / 6 channels
Sampling rate: 48.0 kHz
Stream size: 435 MiB (15%)

+ Audio #1: English / Dolby Digital (A_AC3 / AC-3)
Duration: 01:35:03.552
Bit rate: 640 kb/s (CBR) / 6 channels
Sampling rate: 48.0 kHz
Stream size: 435 MiB (15%)

+ Text #0: French
Format: UTF-8
Stream size:

+ Text #1: English
Format: UTF-8
Stream size:

+ Text #2: Vietnamese
Format: UTF-8
Stream size:

DOWNLOAD

[collapse]

2 comments

Gửi phản hồi