BIỆT ĐỘI BỒ CÂU (Valiant)

Posted by

Valiant (2005) 1h 16min | Animation, Adventure, Comedy | 25 March 2005 (UK) Summary: At the height of World War II, a tiny wood pigeon enlists in the elite Royal Homing Pigeon Service to serve Britain, as the fearsome General Von Talon and his deadly squadron of falcons patrol the English Channel. Is he a war-hero in the making?
Countries: UK, USALanguages: English
DVD5

Hệ: NTSC
Tỷ lệ: 16:9
Âm thanh: Anh (2.0), Bồ Đào Nha (5.1), Tây Ban Nha (5.1)
Phụ đề:
Thời lượng: 1:15:44
Menu: Có
Extra: Có
DOWNLOAD

[collapse]
DVD5 ViE

Hệ: NTSC
Tỷ lệ: 16:9
Âm thanh: Anh (2.0), Việt (5.1)
Phụ đề: Việt
Thời lượng: 1:15:39
Menu: Có
Extra: Có
DOWNLOAD

[collapse]
Valiant.2005.ViE.mHD.x264.EPiK.mkv

General
Name: Valiant.2005.ViE.mHD.x264.EPiK.mkv
Format: Matroska (Version 2)
Duration: 01:15:48.512
Size: 1.599 GiB
Bitrate: 3 019 kb/s
Frame rate: 23.976

Video
Format: AVC (High@L4.1)
Resolution: 1280 x 694 (2 569 kb/s)
Ratio: 1.85:1
Stream size: 1.33 GiB (83%)

+ Audio #0: Vietnamese / Dolby Digital (A_AC3 / AC-3)
Duration: 01:15:48.512
Bit rate: 448 kb/s (CBR) / 6 channels
Sampling rate: 48.0 kHz
Stream size: 243 MiB (15%)

DOWNLOAD

[collapse]

Gửi phản hồi