DIỆP VẤN (Ip Man)

Posted by

Diep Van (2008) 1h 46min | Action, Biography, Drama | 12 December 2008 (China) Summary: During the Japanese invasion of 1937, when a wealthy martial artist is forced to leave his home and work to support his family, he reluctantly agrees to train others in the art of Wing Chun for self-defense.
Countries: Hong Kong, ChinaLanguages: Cantonese, Mandarin, Japanese
DVD5

Hệ: NTSC
Tỷ lệ: 16:9
Âm thanh: Trung (5.1)
Phụ đề: Anh, Tây Ban Nha
Thời lượng: 1:46:14
Menu: Có
Extra: Có
DOWNLOAD

[collapse]
DVD5 ViE

Hệ: NTSC
Tỷ lệ: 16:9
Âm thanh: Trung (5.1), Việt (5.1)
Phụ đề: Anh, Tây Ban Nha, Việt
Thời lượng: 1:46:14
Menu: Có
Extra: Có
DOWNLOAD

[collapse]
Ip.Man.2008.ViE.720p.BluRay.DD5.1.x264-CtrlHD.mkv

General
Name: Ip.Man.2008.ViE.720p.BluRay.DD5.1.x264-CtrlHD.mkv
Format: Matroska (Version 4)
Duration: 01:46:21.440
Size: 4.773 GiB
Bitrate: 6 425 kb/s
Frame rate: 24.000

Video
Format: AVC (High@L4.1)
Resolution: 1280 x 546 (4 275 kb/s)
Ratio: 2.35:1
Stream size: 3.17 GiB (67%)

+ Audio #0: Chinese / DTS (A_DTS / DTS)
Duration: 01:46:21.046
Bit rate: 1 509 kb/s (CBR) / 6 channels
Sampling rate: 48.0 kHz
Stream size: 1.12 GiB (23%)

+ Audio #1: Vietnamese / Dolby Digital (A_AC3 / AC-3)
Duration: 01:46:21.440
Bit rate: 640 kb/s (CBR) / 6 channels
Sampling rate: 48.0 kHz
Stream size: 487 MiB (10%)

+ Text #0: Vietnamese
Format: UTF-8
Stream size: 42.7 KiB (0%)

DOWNLOAD

[collapse]

Gửi phản hồi