POKÉMON: THÁM TỬ PIKACHU (Pokémon Detective Pikachu)

Posted by

Pokémon: Tham Tu Pikachu (2019) 1h 44min | Action, Adventure, Comedy | 10 May 2019 (Vietnam) Summary: In a world where people collect Pokémon to do battle, a boy comes across an intelligent talking Pikachu who seeks to be a detective.
Countries: USA, Japan, CanadaLanguages: English
DVD5

Hệ: NTSC
Tỷ lệ: 16:9
Âm thanh: Anh (5.1), Pháp (5.1), Tây Ban Nha (5.1)
Phụ đề: Anh, Pháp, Tây Ban Nha
Thời lượng: 1:44:22
Menu: Có
Extra: Có
DOWNLOAD

[collapse]
DVD5 ViE

Hệ: NTSC
Tỷ lệ: 16:9
Âm thanh: Anh (5.1), Việt (5.1)
Phụ đề: Anh, Pháp, Tây Ban Nha, Việt
Thời lượng: 1:44:21
Menu: Có
Extra: Có
DOWNLOAD

[collapse]
Pokémon Detective Pikachu 2019 ViE 2160p UHD BluRay TrueHD Atmos 7.1 HDR x265-CHD.mkv

General
Name: Pokémon Detective Pikachu 2019 ViE 2160p UHD BluRay TrueHD Atmos 7.1 HDR x265-CHD.mkv
Format: Matroska (Version 4)
Duration: 01:44:29.152
Size: 22.28 GiB
Bitrate: 30.5 Mb/s
Frame rate: 23.976

Video
Format: HEVC (Main 10@L5@Main)
Resolution: 3840 x 1600 (21.4 Mb/s)
Ratio: 2.40:1
Stream size: 15.6 GiB (70%)

+ Audio #0: Vietnamese / DTS-HD Master Audio (A_DTS / DTS ES XLL)
Duration: 01:44:29.142
Bit rate: 5 089 kb/s (VBR) / 8 channels
Sampling rate: 48.0 kHz
Stream size: 3.71 GiB (17%)

+ Audio #1: Vietnamese / Dolby Digital (A_AC3 / AC-3)
Duration: 01:44:29.152
Bit rate: 640 kb/s (CBR) / 6 channels
Sampling rate: 48.0 kHz
Stream size: 478 MiB (2%)

+ Audio #2: English / Dolby TrueHD with Dolby Atmos (A_TRUEHD / MLP FBA 16-ch)
Duration: 01:44:28.428
Bit rate: 3 234 kb/s (VBR) / 8 channels
Sampling rate: 48.0 kHz
Stream size: 2.36 GiB (11%)

+ Text #0: Vietnamese
Format: UTF-8
Stream size: 63.7 KiB (0%)

+ Text #1: English
Format: PGS
Stream size: 28.0 MiB (0%)

+ Text #2: Chinese
Format: PGS
Stream size: 20.5 MiB (0%)

+ Text #3: Chinese
Format: PGS
Stream size: 39.1 MiB (0%)

+ Text #4: Chinese
Format: PGS
Stream size: 39.7 MiB (0%)

DOWNLOAD

[collapse]
Pokemon Detective Pikachu 2019 ViE 2160p UHD Blu-ray Remux HEVC TrueHD Atmos 7.1-HDT.mkv

General
Name: Pokemon Detective Pikachu 2019 ViE 2160p UHD Blu-ray Remux HEVC TrueHD Atmos 7.1-HDT.mkv
Format: Matroska (Version 4)
Duration: 01:44:29.152
Size: 53.72 GiB
Bitrate: 73.6 Mb/s
Frame rate: 23.976

Video
Format: HEVC (Main 10@L5.1@High)
Resolution: 3840 x 2160 (63.7 Mb/s)
Ratio: 16:9
Stream size: 46.5 GiB (87%)

+ Audio #0: English / Dolby TrueHD with Dolby Atmos (A_TRUEHD / MLP FBA 16-ch)
Duration: 01:44:28.429
Bit rate: 3 234 kb/s (VBR) / 8 channels
Sampling rate: 48.0 kHz
Stream size: 2.36 GiB (4%)

+ Audio #1: English / Dolby Digital (A_AC3 / AC-3)
Duration: 01:44:28.448
Bit rate: 640 kb/s (CBR) / 6 channels
Sampling rate: 48.0 kHz
Stream size: 478 MiB (1%)

+ Audio #2: Vietnamese / DTS-HD Master Audio (A_DTS / DTS ES XLL)
Duration: 01:44:29.142
Bit rate: 5 089 kb/s (VBR) / 8 channels
Sampling rate: 48.0 kHz
Stream size: 3.71 GiB (7%)

+ Audio #3: Vietnamese / Dolby Digital (A_AC3 / AC-3)
Duration: 01:44:29.152
Bit rate: 640 kb/s (CBR) / 6 channels
Sampling rate: 48.0 kHz
Stream size: 478 MiB (1%)

+ Text #0: Vietnamese
Format: UTF-8
Stream size: 63.7 KiB (0%)

+ Text #1: English
Format: PGS
Stream size: 26.6 MiB (0%)

+ Text #2: French
Format: PGS
Stream size: 18.4 MiB (0%)

+ Text #3: Chinese
Format: PGS
Stream size: 19.3 MiB (0%)

+ Text #4: Chinese
Format: PGS
Stream size: 19.6 MiB (0%)

+ Text #5: Korean
Format: PGS
Stream size: 13.3 MiB (0%)

+ Text #6: Spanish
Format: PGS
Stream size: 22.0 MiB (0%)

+ Text #7: Bulgarian
Format: PGS
Stream size: 19.8 MiB (0%)

+ Text #8: Croatian
Format: PGS
Stream size: 20.4 MiB (0%)

+ Text #9: Czech
Format: PGS
Stream size: 20.6 MiB (0%)

+ Text #10: Hungarian
Format: PGS
Stream size: 19.3 MiB (0%)

+ Text #11: Portuguese
Format: PGS
Stream size: 23.6 MiB (0%)

+ Text #12: Romanian
Format: PGS
Stream size: 20.8 MiB (0%)

+ Text #13: Russian
Format: PGS
Stream size: 20.6 MiB (0%)

+ Text #14: Slovenian
Format: PGS
Stream size: 18.8 MiB (0%)

+ Text #15: Thai
Format: PGS
Stream size: 21.0 MiB (0%)

+ Text #16: Turkish
Format: PGS
Stream size: 22.6 MiB (0%)

DOWNLOAD

[collapse]
Pokemon.Detective.Pikachu.2019.ViE.1080p.10bit.BluRay.8CH.x265.HEVC-PSA.mkv

General
Name: Pokemon.Detective.Pikachu.2019.ViE.1080p.10bit.BluRay.8CH.x265.HEVC-PSA.mkv
Format: Matroska (Version 4)
Duration: 01:44:29.130
Size: 2.921 GiB
Bitrate: 4 002 kb/s
Frame rate: 23.976

Video
Format: HEVC (Main 10@L4@Main)
Resolution: 1920 x 808 (3 516 kb/s)
Ratio: 2.40:1
Stream size: 2.57 GiB (88%)

+ Audio #0: Vietnamese / Dolby Digital (A_AC3 / AC-3)
Duration: 01:44:29.120
Bit rate: 192 kb/s (CBR) / 2 channels
Sampling rate: 48.0 kHz
Stream size: 143 MiB (5%)

+ Audio #1: English / HE-AAC (A_AAC-2 / AAC LC SBR)
Duration: 01:44:29.099
Bit rate: 288 kb/s () / 8 channels
Sampling rate: 48.0 kHz
Stream size: 217 MiB (7%)

+ Text #0: Vietnamese
Format: UTF-8
Stream size: 63.7 KiB (0%)

+ Text #1: English
Format: UTF-8
Stream size: 45.6 KiB (0%)

+ Text #2: English
Format: UTF-8
Stream size: 49.1 KiB (0%)

+ Text #3: Vietnamese
Format: UTF-8
Stream size: 63.7 KiB (0%)

DOWNLOAD

[collapse]
Pokemon Detective Pikachu (2019) BD Vie Remux AVC 1080p TrueHD 7.1 Atmos (Eng) DTS-HD MA 7.1 (Vie).mkv

General
Name: Pokemon Detective Pikachu (2019) BD Vie Remux AVC 1080p TrueHD 7.1 Atmos (Eng) DTS-HD MA 7.1 (Vie).mkv
Format: Matroska (Version 4)
Duration: 01:44:29.152
Size: 25.36 GiB
Bitrate: 34.8 Mb/s
Frame rate: 23.976

Video
Format: AVC (High@L4.1)
Resolution: 1920 x 1080 (21.9 Mb/s)
Ratio: 16:9
Stream size: 16.0 GiB (63%)

+ Audio #0: English / Dolby TrueHD with Dolby Atmos (A_TRUEHD / MLP FBA 16-ch)
Duration: 01:44:29.097
Bit rate: 3 234 kb/s (VBR) / 8 channels
Sampling rate: 48.0 kHz
Stream size: 2.36 GiB (9%)

+ Audio #1: Vietnamese / DTS-HD Master Audio (A_DTS / DTS XLL)
Duration: 01:44:29.120
Bit rate: 5 186 kb/s (VBR) / 8 channels
Sampling rate: 48.0 kHz
Stream size: 3.78 GiB (15%)

+ Audio #2: Vietnamese / Dolby Digital (A_AC3 / AC-3)
Duration: 01:44:29.152
Bit rate: 640 kb/s (CBR) / 6 channels
Sampling rate: 48.0 kHz
Stream size: 478 MiB (2%)

+ Audio #3: Vietnamese / DTS (A_DTS / DTS)
Duration: 01:44:29.120
Bit rate: 1 509 kb/s (CBR) / 6 channels
Sampling rate: 48.0 kHz
Stream size: 1.10 GiB (4%)

+ Audio #4: English / Dolby Digital (A_AC3 / AC-3)
Duration: 01:44:29.120
Bit rate: 640 kb/s (CBR) / 6 channels
Sampling rate: 48.0 kHz
Stream size: 478 MiB (2%)

+ Audio #5: English / DTS (A_DTS / DTS)
Duration: 01:44:29.120
Bit rate: 1 509 kb/s (CBR) / 6 channels
Sampling rate: 48.0 kHz
Stream size: 1.10 GiB (4%)

+ Text #0: Vietnamese
Format: UTF-8
Stream size: 63.5 KiB (0%)

+ Text #1: Vietnamese
Format: PGS
Stream size: 32.1 MiB (0%)

+ Text #2: English
Format: PGS
Stream size: 28.6 MiB (0%)

+ Text #3: French
Format: PGS
Stream size: 19.8 MiB (0%)

+ Text #4: Spanish
Format: PGS
Stream size: 23.6 MiB (0%)

DOWNLOAD

[collapse]
Pokemon Detective Pikachu 2019 ViE 1080p Blu-ray Remux AVC TrueHD Atmos 7.1-HDT.mkv

General
Name: Pokemon Detective Pikachu 2019 ViE 1080p Blu-ray Remux AVC TrueHD Atmos 7.1-HDT.mkv
Format: Matroska (Version 4)
Duration: 01:44:29.152
Size: 23.08 GiB
Bitrate: 31.6 Mb/s
Frame rate: 23.976

Video
Format: AVC (High@L4.1)
Resolution: 1920 x 1080 (21.9 Mb/s)
Ratio: 16:9
Stream size: 16.0 GiB (69%)

+ Audio #0: Vietnamese / DTS-HD Master Audio (A_DTS / DTS ES XLL)
Duration: 01:44:29.142
Bit rate: 5 089 kb/s (VBR) / 8 channels
Sampling rate: 48.0 kHz
Stream size: 3.71 GiB (16%)

+ Audio #1: Vietnamese / Dolby Digital (A_AC3 / AC-3)
Duration: 01:44:29.152
Bit rate: 640 kb/s (CBR) / 6 channels
Sampling rate: 48.0 kHz
Stream size: 478 MiB (2%)

+ Audio #2: English / Dolby TrueHD with Dolby Atmos (A_TRUEHD / MLP FBA 16-ch)
Duration: 01:44:29.097
Bit rate: 3 234 kb/s (VBR) / 8 channels
Sampling rate: 48.0 kHz
Stream size: 2.36 GiB (10%)

+ Audio #3: English / Dolby Digital (A_AC3 / AC-3)
Duration: 01:44:29.120
Bit rate: 640 kb/s (CBR) / 6 channels
Sampling rate: 48.0 kHz
Stream size: 478 MiB (2%)

+ Text #0: Vietnamese
Format: UTF-8
Stream size: 63.7 KiB (0%)

+ Text #1: English
Format: PGS
Stream size: 28.6 MiB (0%)

+ Text #2: French
Format: PGS
Stream size: 19.8 MiB (0%)

+ Text #3: Spanish
Format: PGS
Stream size: 23.6 MiB (0%)

+ Text #4: Portuguese
Format: PGS
Stream size: 24.3 MiB (0%)

DOWNLOAD

[collapse]
Pokemon.Detective.Pikachu.2019.ViE.1080p.BluRay.DTS-ES.x264-HDChina.mkv

General
Name: Pokemon.Detective.Pikachu.2019.ViE.1080p.BluRay.DTS-ES.x264-HDChina.mkv
Format: Matroska (Version 4)
Duration: 01:44:29.152
Size: 12.27 GiB
Bitrate: 16.8 Mb/s
Frame rate: 23.976

Video
Format: AVC (High@L4.1)
Resolution: 1920 x 804 (14.0 Mb/s)
Ratio: 2.40:1
Stream size: 10.2 GiB (83%)

+ Audio #0: Vietnamese / DTS-ES Matrix (A_DTS / DTS ES)
Duration: 01:44:29.142
Bit rate: 1 509 kb/s (CBR) / 6 channels
Sampling rate: 48.0 kHz
Stream size: 1.10 GiB (9%)

+ Audio #1: Vietnamese / Dolby Digital (A_AC3 / AC-3)
Duration: 01:44:29.152
Bit rate: 640 kb/s (CBR) / 6 channels
Sampling rate: 48.0 kHz
Stream size: 478 MiB (4%)

+ Audio #2: English / Dolby Digital (A_AC3 / AC-3)
Duration: 01:44:29.120
Bit rate: 640 kb/s (CBR) / 6 channels
Sampling rate: 48.0 kHz
Stream size: 478 MiB (4%)

+ Text #0: Vietnamese
Format: UTF-8
Stream size: 63.7 KiB (0%)

+ Text #1: English
Format: PGS
Stream size: 28.6 MiB (0%)

DOWNLOAD

[collapse]
Pokemon.Detective.Pikachu.2019.ViE.1080p.BluRay.DD5.1.x264-AAA.mkv

General
Name: Pokemon.Detective.Pikachu.2019.ViE.1080p.BluRay.DD5.1.x264-AAA.mkv
Format: Matroska (Version 4)
Duration: 01:44:29.120
Size: 6.694 GiB
Bitrate: 9 172 kb/s
Frame rate: 23.976

Video
Format: AVC (High@L4.1)
Resolution: 1920 x 808 (8 339 kb/s)
Ratio: 2.40:1
Stream size: 6.08 GiB (91%)

+ Audio #0: Vietnamese / Dolby Digital (A_AC3 / AC-3)
Duration: 01:44:29.120
Bit rate: 192 kb/s (CBR) / 2 channels
Sampling rate: 48.0 kHz
Stream size: 143 MiB (2%)

+ Audio #1: English / Dolby Digital (A_AC3 / AC-3)
Duration: 01:44:29.120
Bit rate: 640 kb/s (CBR) / 6 channels
Sampling rate: 48.0 kHz
Stream size: 478 MiB (7%)

+ Text #0: Vietnamese
Format: UTF-8
Stream size: 63.7 KiB (0%)

+ Text #1: English
Format: UTF-8
Stream size: 49.1 KiB (0%)

DOWNLOAD

[collapse]
Pokemon.Detective.Pikachu.2019.ViE.1080p.WEB-DL.DD5.1.H264-FGT.mkv

General
Name: Pokemon.Detective.Pikachu.2019.ViE.1080p.WEB-DL.DD5.1.H264-FGT.mkv
Format: Matroska (Version 4)
Duration: 01:37:21.033
Size: 3.832 GiB
Bitrate: 5 635 kb/s
Frame rate: 30.303

Video
Format: AVC (High@L4.1)
Resolution: 1920 x 800 (4 897 kb/s)
Ratio: 2.40:1
Stream size: 3.35 GiB (87%)

+ Audio #0: Vietnamese / MPEG Audio (A_MPEG/L3 / MPEG Audio)
Duration: 01:37:20.976
Bit rate: 320 kb/s (CBR) / 2 channels
Sampling rate: 48.0 kHz
Stream size: 223 MiB (6%)

+ Audio #1: English / Dolby Digital (A_AC3 / AC-3)
Duration: 01:37:20.864
Bit rate: 384 kb/s (CBR) / 6 channels
Sampling rate: 48.0 kHz
Stream size: 267 MiB (7%)

DOWNLOAD

[collapse]
Pokémon Detective Pikachu.2019.1080p.HDRip.X264.AC3-EVO.mkv

General
Name: Pokémon Detective Pikachu.2019.1080p.HDRip.X264.AC3-EVO.mkv
Format: Matroska (Version 4)
Duration: 01:37:22.368
Size: 3.963 GiB
Bitrate: 5 826 kb/s
Frame rate: 30.303

Video
Format: AVC (High@L4.1)
Resolution: 1920 x 800 (4 897 kb/s)
Ratio: 2.40:1
Stream size: 3.35 GiB (85%)

+ Audio #0: English / Dolby Digital (A_AC3 / AC-3)
Duration: 01:37:20.864
Bit rate: 384 kb/s (CBR) / 6 channels
Sampling rate: 48.0 kHz
Stream size: 267 MiB (7%)

+ Audio #1: Vietnamese / Dolby Digital (A_AC3 / AC-3)
Duration: 01:37:22.368
Bit rate: 512 kb/s (CBR) / 2 channels
Sampling rate: 48.0 kHz
Stream size: 357 MiB (9%)

DOWNLOAD

[collapse]
Pokémon Detective Pikachu 2019 ViE 720p BluRay DTS-ES x264-RightSiZE.mkv

General
Name: Pokémon Detective Pikachu 2019 ViE 720p BluRay DTS-ES x264-RightSiZE.mkv
Format: Matroska (Version 4)
Duration: 01:44:29.142
Size: 6.894 GiB
Bitrate: 9 446 kb/s
Frame rate: 23.976

Video
Format: AVC (High@L4.1)
Resolution: 1280 x 536 (7 300 kb/s)
Ratio: 2.40:1
Stream size: 5.32 GiB (77%)

+ Audio #0: Vietnamese / DTS-ES Matrix (A_DTS / DTS ES)
Duration: 01:44:29.142
Bit rate: 1 509 kb/s (CBR) / 6 channels
Sampling rate: 48.0 kHz
Stream size: 1.10 GiB (16%)

+ Audio #1: English / Dolby Digital (A_AC3 / AC-3)
Duration: 01:44:29.120
Bit rate: 640 kb/s (CBR) / 6 channels
Sampling rate: 48.0 kHz
Stream size: 478 MiB (7%)

+ Text #0: Vietnamese
Format: UTF-8
Stream size: 63.7 KiB (0%)

+ Text #1: English
Format: UTF-8
Stream size: 45.5 KiB (0%)

+ Text #2: English
Format: UTF-8
Stream size: 53.8 KiB (0%)

DOWNLOAD

[collapse]
Pokemon.Detective.Pikachu.2019.ViE.720p.BluRay.DTS-ES.x264-HDChina.mkv

General
Name: Pokemon.Detective.Pikachu.2019.ViE.720p.BluRay.DTS-ES.x264-HDChina.mkv
Format: Matroska (Version 4)
Duration: 01:44:29.152
Size: 6.064 GiB
Bitrate: 8 309 kb/s
Frame rate: 23.976

Video
Format: AVC (High@L4.1)
Resolution: 1280 x 536 (5 500 kb/s)
Ratio: 2.40:1
Stream size: 4.01 GiB (66%)

+ Audio #0: Vietnamese / DTS-ES Matrix (A_DTS / DTS ES)
Duration: 01:44:29.142
Bit rate: 1 509 kb/s (CBR) / 6 channels
Sampling rate: 48.0 kHz
Stream size: 1.10 GiB (18%)

+ Audio #1: Vietnamese / Dolby Digital (A_AC3 / AC-3)
Duration: 01:44:29.152
Bit rate: 640 kb/s (CBR) / 6 channels
Sampling rate: 48.0 kHz
Stream size: 478 MiB (8%)

+ Audio #2: English / Dolby Digital (A_AC3 / AC-3)
Duration: 01:44:29.120
Bit rate: 640 kb/s (CBR) / 6 channels
Sampling rate: 48.0 kHz
Stream size: 478 MiB (8%)

+ Text #0: Vietnamese
Format: UTF-8
Stream size: 63.7 KiB (0%)

+ Text #1: English
Format: PGS
Stream size: 28.6 MiB (0%)

DOWNLOAD

[collapse]
Pokémon Detective Pikachu 2019 ViE mHD BluRay DD-EX 5.1 x264-HDT.mkv

General
Name: Pokémon Detective Pikachu 2019 ViE mHD BluRay DD-EX 5.1 x264-HDT.mkv
Format: Matroska (Version 4)
Duration: 01:44:29.152
Size: 3.212 GiB
Bitrate: 4 401 kb/s
Frame rate: 23.976

Video
Format: AVC (High@L4.1)
Resolution: 1280 x 536 (3 061 kb/s)
Ratio: 2.40:1
Stream size: 2.23 GiB (70%)

+ Audio #0: Vietnamese / Dolby Digital (A_AC3 / AC-3)
Duration: 01:44:29.152
Bit rate: 640 kb/s (CBR) / 6 channels
Sampling rate: 48.0 kHz
Stream size: 478 MiB (15%)

+ Audio #1: English / Dolby Digital (A_AC3 / AC-3)
Duration: 01:44:29.120
Bit rate: 640 kb/s (CBR) / 6 channels
Sampling rate: 48.0 kHz
Stream size: 478 MiB (15%)

+ Text #0: Vietnamese
Format: UTF-8
Stream size: 63.7 KiB (0%)

+ Text #1: English
Format: PGS
Stream size: 28.6 MiB (1%)

+ Text #2: French
Format: PGS
Stream size: 19.8 MiB (1%)

+ Text #3: Spanish
Format: PGS
Stream size: 23.6 MiB (1%)

+ Text #4: Portuguese
Format: PGS
Stream size: 24.3 MiB (1%)

DOWNLOAD

[collapse]

One comment

Gửi phản hồi