BIỆT ĐỘI SIÊU ANH HÙNG 4: HỒI KẾT (Avengers: Endgame)

Posted by

Avengers: Hoi Ket (2019) 3h 1min | Action, Adventure, Sci-Fi | 26 April 2019 (Vietnam) Summary: After the devastating events of Avengers: Cuoc Chien Vo Cuc (2018), the universe is in ruins. With the help of remaining allies, the Avengers assemble once more in order to reverse Thanos' actions and restore balance to the universe.
Countries: USALanguages: English, Japanese, Xhosa
DVD5

Hệ: NTSC
Tỷ lệ: 16:9
Âm thanh: Anh (5.1), Tây Ban Nha (5.1)
Phụ đề: Anh, Tây Ban Nha
Thời lượng: 3:01:00
Menu: Có
Extra: Có
DOWNLOAD

[collapse]
DVD5 ViE

Hệ: NTSC
Tỷ lệ: 16:9
Âm thanh: Anh (5.1), Việt (5.1)
Phụ đề: Anh, Tây Ban Nha, Việt
Thời lượng: 3:01:00
Menu: Có
Extra: Có
DOWNLOAD

[collapse]
Avengers Endgame 2019 ViE 2160p UHD BluRay TrueHD Atmos 7.1 HDR x265-CHD.mkv

General
Name: Avengers Endgame 2019 ViE 2160p UHD BluRay TrueHD Atmos 7.1 HDR x265-CHD.mkv
Format: Matroska (Version 4)
Duration: 03:01:36.736
Size: 18.91 GiB
Bitrate: 14.9 Mb/s
Frame rate: 23.976

Video
Format: HEVC (Main 10@L5@Main)
Resolution: 3840 x 1600 (7 668 kb/s)
Ratio: 2.40:1
Stream size: 9.70 GiB (51%)

+ Audio #0: Vietnamese / DTS-ES Matrix (A_DTS / DTS ES)
Duration: 03:01:36.726
Bit rate: 1 509 kb/s (CBR) / 6 channels
Sampling rate: 48.0 kHz
Stream size: 1.91 GiB (10%)

+ Audio #1: Vietnamese / Dolby Digital (A_AC3 / AC-3)
Duration: 03:01:36.736
Bit rate: 640 kb/s (CBR) / 6 channels
Sampling rate: 48.0 kHz
Stream size: 831 MiB (4%)

+ Audio #2: English / Dolby TrueHD with Dolby Atmos (A_TRUEHD / MLP FBA 16-ch)
Duration: 03:01:11.529
Bit rate: 4 777 kb/s (VBR) / 8 channels
Sampling rate: 48.0 kHz
Stream size: 6.05 GiB (32%)

+ Audio #3: English / Dolby Digital (A_AC3 / AC-3)
Duration: 03:01:11.392
Bit rate: 192 kb/s (CBR) / 6 channels
Sampling rate: 48.0 kHz
Stream size: 249 MiB (1%)

+ Text #0: Vietnamese
Format: UTF-8
Stream size: 89.2 KiB (0%)

+ Text #1: English
Format: PGS
Stream size: 43.6 MiB (0%)

+ Text #2: Chinese
Format: PGS
Stream size: 30.8 MiB (0%)

+ Text #3: Chinese
Format: PGS
Stream size: 28.4 MiB (0%)

+ Text #4: Chinese
Format: PGS
Stream size: 52.0 MiB (0%)

+ Text #5: Chinese
Format: PGS
Stream size: 54.3 MiB (0%)

DOWNLOAD

[collapse]
Avengers Endgame 2019 ViE 2160p UHD BluRay HDR TrueHD 7.1 Atmos 10bit x265 -TERMiNAL.mkv

General
Name: Avengers Endgame 2019 ViE 2160p UHD BluRay HDR TrueHD 7.1 Atmos 10bit x265 -TERMiNAL.mkv
Format: Matroska (Version 4)
Duration: 03:01:11.552
Size: 15.21 GiB
Bitrate: 12.0 Mb/s
Frame rate: 23.976

Video
Format: HEVC (Main 10@L5.1@High)
Resolution: 3840 x 1608 (5 009 kb/s)
Ratio: 2.40:1
Stream size: 6.34 GiB (42%)

+ Audio #0: Vietnamese / DTS (A_DTS / DTS)
Duration: 03:01:11.392
Bit rate: 1 509 kb/s (CBR) / 6 channels
Sampling rate: 48.0 kHz
Stream size: 1.91 GiB (13%)

+ Audio #1: English / Dolby TrueHD with Dolby Atmos (A_TRUEHD / MLP FBA 16-ch)
Duration: 03:01:11.529
Bit rate: 4 777 kb/s (VBR) / 8 channels
Sampling rate: 48.0 kHz
Stream size: 6.05 GiB (40%)

+ Audio #2: English / Dolby Digital (A_AC3 / AC-3)
Duration: 03:01:11.552
Bit rate: 640 kb/s (CBR) / 6 channels
Sampling rate: 48.0 kHz
Stream size: 829 MiB (5%)

+ Text #0: Vietnamese
Format: UTF-8
Stream size: 88.3 KiB (0%)

+ Text #1: English
Format: PGS
Stream size: 43.6 MiB (0%)

DOWNLOAD

[collapse]
Avengers Endgame 2019 ViE 2160p UHD BluRay TrueHD Atmos 7.1 HDR x265-beAst.mkv

General
Name: Avengers Endgame 2019 ViE 2160p UHD BluRay TrueHD Atmos 7.1 HDR x265-beAst.mkv
Format: Matroska (Version 4)
Duration: 03:01:36.736
Size: 31.17 GiB
Bitrate: 24.6 Mb/s
Frame rate: 23.976

Video
Format: HEVC (Main 10@L5.1@High)
Resolution: 3840 x 1608 (13.5 Mb/s)
Ratio: 2.40:1
Stream size: 17.1 GiB (55%)

+ Audio #0: Vietnamese / DTS-HD Master Audio (A_DTS / DTS ES XLL)
Duration: 03:01:36.726
Bit rate: 4 886 kb/s (VBR) / 8 channels
Sampling rate: 48.0 kHz
Stream size: 6.20 GiB (20%)

+ Audio #1: Vietnamese / Dolby Digital (A_AC3 / AC-3)
Duration: 03:01:36.736
Bit rate: 640 kb/s (CBR) / 6 channels
Sampling rate: 48.0 kHz
Stream size: 831 MiB (3%)

+ Audio #2: English / Dolby TrueHD with Dolby Atmos (A_TRUEHD / MLP FBA 16-ch)
Duration: 03:01:11.528
Bit rate: 4 777 kb/s (VBR) / 8 channels
Sampling rate: 48.0 kHz
Stream size: 6.05 GiB (19%)

+ Audio #3: English / Dolby Digital (A_AC3 / AC-3)
Duration: 03:01:11.552
Bit rate: 640 kb/s (CBR) / 6 channels
Sampling rate: 48.0 kHz
Stream size: 829 MiB (3%)

+ Text #0: Vietnamese
Format: UTF-8
Stream size: 89.2 KiB (0%)

+ Text #1: English
Format: PGS
Stream size: 43.6 MiB (0%)

+ Text #2: Chinese
Format: PGS
Stream size: 31.5 MiB (0%)

+ Text #3: Chinese
Format: PGS
Stream size: 32.5 MiB (0%)

+ Text #4: Chinese
Format: PGS
Stream size: 54.3 MiB (0%)

+ Text #5: Chinese
Format: PGS
Stream size: 55.3 MiB (0%)

DOWNLOAD

[collapse]
Avengers Endgame 2019 ViE 2160p WEB-DL DTS HDR HEVC-DEFLATE.mkv

General
Name: Avengers Endgame 2019 ViE 2160p WEB-DL DTS HDR HEVC-DEFLATE.mkv
Format: Matroska (Version 4)
Duration: 03:01:51.200
Size: 34.58 GiB
Bitrate: 27.2 Mb/s
Frame rate: 23.976

Video
Format: HEVC (Main 10@L5@High)
Resolution: 3840 x 1608 (24.5 Mb/s)
Ratio: 16:9
Stream size: 31.0 GiB (90%)

+ Audio #0: Vietnamese / DTS (A_DTS / DTS)
Duration: 03:01:36.203
Bit rate: 1 509 kb/s (CBR) / 6 channels
Sampling rate: 48.0 kHz
Stream size: 1.91 GiB (6%)

+ Audio #1: Vietnamese / Dolby Digital (A_AC3 / AC-3)
Duration: 03:01:36.224
Bit rate: 640 kb/s (CBR) / 6 channels
Sampling rate: 48.0 kHz
Stream size: 831 MiB (2%)

+ Audio #2: English / Dolby Digital Plus with Dolby Atmos (A_EAC3 / E-AC-3 JOC)
Duration: 03:01:51.200
Bit rate: 640 kb/s (CBR) / 6 channels
Sampling rate: 48.0 kHz
Stream size: 832 MiB (2%)

+ Text #0: Vietnamese
Format: UTF-8
Stream size: 89.2 KiB (0%)

+ Text #1: English
Format: UTF-8
Stream size: 257 Bytes (0%)

+ Text #2: English
Format: UTF-8
Stream size: 59.6 KiB (0%)

+ Text #3: English
Format: UTF-8
Stream size: 67.4 KiB (0%)

+ Text #4: Spanish
Format: UTF-8
Stream size: 59.9 KiB (0%)

DOWNLOAD

[collapse]
Avengers Endgame 2019 ViE 2160p WEB-DL DTS HEVC-DEFLATE.mkv

General
Name: Avengers Endgame 2019 ViE 2160p WEB-DL DTS HEVC-DEFLATE.mkv
Format: Matroska (Version 4)
Duration: 03:01:51.200
Size: 34.87 GiB
Bitrate: 27.5 Mb/s
Frame rate: 23.976

Video
Format: HEVC (Main 10@L5@High)
Resolution: 3840 x 1608 (24.8 Mb/s)
Ratio: 16:9
Stream size: 31.3 GiB (90%)

+ Audio #0: Vietnamese / DTS (A_DTS / DTS)
Duration: 03:01:36.203
Bit rate: 1 509 kb/s (CBR) / 6 channels
Sampling rate: 48.0 kHz
Stream size: 1.91 GiB (5%)

+ Audio #1: Vietnamese / Dolby Digital (A_AC3 / AC-3)
Duration: 03:01:36.224
Bit rate: 640 kb/s (CBR) / 6 channels
Sampling rate: 48.0 kHz
Stream size: 831 MiB (2%)

+ Audio #2: English / Dolby Digital Plus with Dolby Atmos (A_EAC3 / E-AC-3 JOC)
Duration: 03:01:51.200
Bit rate: 640 kb/s (CBR) / 6 channels
Sampling rate: 48.0 kHz
Stream size: 832 MiB (2%)

+ Text #0: Vietnamese
Format: UTF-8
Stream size: 89.2 KiB (0%)

+ Text #1: English
Format: UTF-8
Stream size: 257 Bytes (0%)

+ Text #2: English
Format: UTF-8
Stream size: 59.6 KiB (0%)

+ Text #3: English
Format: UTF-8
Stream size: 67.4 KiB (0%)

+ Text #4: Spanish
Format: UTF-8
Stream size: 59.9 KiB (0%)

DOWNLOAD

[collapse]
Avengers Endgame 2019 ViE 2160p UHD Blu-ray Remux HEVC TrueHD Atmos 7.1-HDT.mkv

General
Name: Avengers Endgame 2019 ViE 2160p UHD Blu-ray Remux HEVC TrueHD Atmos 7.1-HDT.mkv
Format: Matroska (Version 4)
Duration: 03:01:36.736
Size: 59.56 GiB
Bitrate: 46.9 Mb/s
Frame rate: 23.976

Video
Format: HEVC (Main 10@L5.1@High)
Resolution: 3840 x 2160 (36.0 Mb/s)
Ratio: 16:9
Stream size: 45.6 GiB (77%)

+ Audio #0: English / Dolby TrueHD with Dolby Atmos (A_TRUEHD / MLP FBA 16-ch)
Duration: 03:01:11.529
Bit rate: 4 777 kb/s (VBR) / 8 channels
Sampling rate: 48.0 kHz
Stream size: 6.05 GiB (10%)

+ Audio #1: English / Dolby Digital (A_AC3 / AC-3)
Duration: 03:01:11.552
Bit rate: 640 kb/s (CBR) / 6 channels
Sampling rate: 48.0 kHz
Stream size: 829 MiB (1%)

+ Audio #2: Vietnamese / DTS-HD Master Audio (A_DTS / DTS ES XLL)
Duration: 03:01:36.726
Bit rate: 4 886 kb/s (VBR) / 8 channels
Sampling rate: 48.0 kHz
Stream size: 6.20 GiB (10%)

+ Audio #3: Vietnamese / Dolby Digital (A_AC3 / AC-3)
Duration: 03:01:36.736
Bit rate: 640 kb/s (CBR) / 6 channels
Sampling rate: 48.0 kHz
Stream size: 831 MiB (1%)

+ Text #0: Vietnamese
Format: UTF-8
Stream size: 89.2 KiB (0%)

+ Text #1: English
Format: PGS
Stream size: 43.6 MiB (0%)

+ Text #2: French
Format: PGS
Stream size: 35.1 MiB (0%)

+ Text #3: Spanish
Format: PGS
Stream size: 37.3 MiB (0%)

DOWNLOAD

[collapse]
Avengers.Endgame.2019.ViE.2160p.10bit.HDR.BluRay.8CH.x265.HEVC-PSA.mkv

General
Name: Avengers.Endgame.2019.ViE.2160p.10bit.HDR.BluRay.8CH.x265.HEVC-PSA.mkv
Format: Matroska (Version 4)
Duration: 03:01:36.986
Size: 4.505 GiB
Bitrate: 3 551 kb/s
Frame rate: 23.976

Video
Format: HEVC (Main 10@L5@Main)
Resolution: 3840 x 1616 (2 618 kb/s)
Ratio: 2.40:1
Stream size: 3.31 GiB (74%)

+ Audio #0: English / HE-AAC (A_AAC-2 / AAC LC SBR)
Duration: 03:01:11.552
Bit rate: 297 kb/s () / 8 channels
Sampling rate: 48.0 kHz
Stream size: 386 MiB (8%)

+ Audio #1: Vietnamese / Dolby Digital (A_AC3 / AC-3)
Duration: 03:01:36.736
Bit rate: 640 kb/s (CBR) / 6 channels
Sampling rate: 48.0 kHz
Stream size: 831 MiB (18%)

+ Text #0: Vietnamese
Format: UTF-8
Stream size: 89.2 KiB (0%)

+ Text #1: English
Format: UTF-8
Stream size: 61.1 KiB (0%)

+ Text #2: English
Format: UTF-8
Stream size: 68.3 KiB (0%)

DOWNLOAD

[collapse]
Avengers.Endgame.2019.ViE.1080p.10bit.BluRay.8CH.x265.HEVC-PSA.mkv

General
Name: Avengers.Endgame.2019.ViE.1080p.10bit.BluRay.8CH.x265.HEVC-PSA.mkv
Format: Matroska (Version 4)
Duration: 03:01:36.736
Size: 3.619 GiB
Bitrate: 2 853 kb/s
Frame rate: 23.976

Video
Format: HEVC (Main 10@L4@Main)
Resolution: 1920 x 808 (1 912 kb/s)
Ratio: 2.40:1
Stream size: 2.42 GiB (67%)

+ Audio #0: English / HE-AAC (A_AAC-2 / AAC LC SBR)
Duration: 03:01:11.382
Bit rate: 304 kb/s () / 8 channels
Sampling rate: 48.0 kHz
Stream size: 394 MiB (11%)

+ Audio #1: Vietnamese / Dolby Digital (A_AC3 / AC-3)
Duration: 03:01:36.736
Bit rate: 640 kb/s (CBR) / 6 channels
Sampling rate: 48.0 kHz
Stream size: 831 MiB (22%)

+ Text #0: Vietnamese
Format: UTF-8
Stream size: 89.2 KiB (0%)

+ Text #1: English
Format: UTF-8
Stream size: 61.1 KiB (0%)

+ Text #2: English
Format: UTF-8
Stream size: 68.3 KiB (0%)

DOWNLOAD

[collapse]
Avengers Endgame 2019 ViE 1080p Blu-ray Remux AVC TrueHD Atmos 7.1-HDT.mkv

General
Name: Avengers Endgame 2019 ViE 1080p Blu-ray Remux AVC TrueHD Atmos 7.1-HDT.mkv
Format: Matroska (Version 4)
Duration: 03:01:36.736
Size: 43.33 GiB
Bitrate: 34.2 Mb/s
Frame rate: 23.976

Video
Format: AVC (High@L4.1)
Resolution: 1920 x 1080 (23.2 Mb/s)
Ratio: 16:9
Stream size: 29.3 GiB (68%)

+ Audio #0: English / Dolby TrueHD with Dolby Atmos (A_TRUEHD / MLP FBA 16-ch)
Duration: 03:01:11.361
Bit rate: 4 777 kb/s (VBR) / 8 channels
Sampling rate: 48.0 kHz
Stream size: 6.05 GiB (14%)

+ Audio #1: English / Dolby Digital (A_AC3 / AC-3)
Duration: 03:01:11.360
Bit rate: 640 kb/s (CBR) / 6 channels
Sampling rate: 48.0 kHz
Stream size: 829 MiB (2%)

+ Audio #2: Vietnamese / DTS-HD Master Audio (A_DTS / DTS ES XLL)
Duration: 03:01:36.726
Bit rate: 4 886 kb/s (VBR) / 8 channels
Sampling rate: 48.0 kHz
Stream size: 6.20 GiB (14%)

+ Audio #3: Vietnamese / Dolby Digital (A_AC3 / AC-3)
Duration: 03:01:36.736
Bit rate: 640 kb/s (CBR) / 6 channels
Sampling rate: 48.0 kHz
Stream size: 831 MiB (2%)

+ Text #0: Vietnamese
Format: UTF-8
Stream size: 89.2 KiB (0%)

+ Text #1: English
Format: PGS
Stream size: 43.8 MiB (0%)

+ Text #2: French
Format: PGS
Stream size: 35.0 MiB (0%)

+ Text #3: Spanish
Format: PGS
Stream size: 37.3 MiB (0%)

DOWNLOAD

[collapse]
Avengers.Endgame.2019.ViE.1080p.BluRay.DTS-HD.MA.7.1.x264-HDChina.mkv

General
Name: Avengers.Endgame.2019.ViE.1080p.BluRay.DTS-HD.MA.7.1.x264-HDChina.mkv
Format: Matroska (Version 4)
Duration: 03:01:11.392
Size: 26.00 GiB
Bitrate: 20.5 Mb/s
Frame rate: 23.976

Video
Format: AVC (High@L4.1)
Resolution: 1920 x 804 (14.0 Mb/s)
Ratio: 2.40:1
Stream size: 17.7 GiB (68%)

+ Audio #0: Vietnamese / DTS (A_DTS / DTS)
Duration: 03:01:11.392
Bit rate: 1 509 kb/s (CBR) / 6 channels
Sampling rate: 48.0 kHz
Stream size: 1.91 GiB (7%)

+ Audio #1: English / DTS-HD Master Audio (A_DTS / DTS XLL)
Duration: 03:01:11.371
Bit rate: 5 028 kb/s (VBR) / 8 channels
Sampling rate: 48.0 kHz
Stream size: 6.36 GiB (24%)

+ Text #0: Vietnamese
Format: UTF-8
Stream size: 88.3 KiB (0%)

+ Text #1: English
Format: PGS
Stream size: 43.8 MiB (0%)

DOWNLOAD

[collapse]
Avengers Endgame 2019 ViE 1080p BluRay DTS-ES x264-MTeam.mkv

General
Name: Avengers Endgame 2019 ViE 1080p BluRay DTS-ES x264-MTeam.mkv
Format: Matroska (Version 4)
Duration: 03:01:36.726
Size: 20.02 GiB
Bitrate: 15.8 Mb/s
Frame rate: 23.976

Video
Format: AVC (High@L4.1)
Resolution: 1920 x 804 (12.6 Mb/s)
Ratio: 2.40:1
Stream size: 15.9 GiB (79%)

+ Audio #0: Vietnamese / DTS-ES Matrix (A_DTS / DTS ES)
Duration: 03:01:36.726
Bit rate: 1 509 kb/s (CBR) / 6 channels
Sampling rate: 48.0 kHz
Stream size: 1.91 GiB (10%)

+ Audio #1: Vietnamese / HE-AAC (A_AAC-2 / AAC LC SBR)
Duration: 03:01:36.683
Bit rate: 192 kb/s () / 6 channels
Sampling rate: 48.0 kHz
Stream size: 249 MiB (1%)

+ Audio #2: English / DTS-ES Matrix (A_DTS / DTS ES)
Duration: 03:01:11.392
Bit rate: 1 509 kb/s (CBR) / 6 channels
Sampling rate: 48.0 kHz
Stream size: 1.91 GiB (10%)

+ Text #0: Vietnamese
Format: UTF-8
Stream size: 89.2 KiB (0%)

+ Text #1: English
Format: PGS
Stream size: 43.8 MiB (0%)

+ Text #2: Chinese
Format: PGS
Stream size: 28.4 MiB (0%)

+ Text #3: Chinese
Format: PGS
Stream size: 30.8 MiB (0%)

DOWNLOAD

[collapse]
Avengers Endgame 2019 ViE 1080p BluRay DTS x264-SPARKS.mkv

General
Name: Avengers Endgame 2019 ViE 1080p BluRay DTS x264-SPARKS.mkv
Format: Matroska (Version 4)
Duration: 03:01:36.736
Size: 13.93 GiB
Bitrate: 11.0 Mb/s
Frame rate: 23.976

Video
Format: AVC (High@L4.1)
Resolution: 1920 x 808 (8 857 kb/s)
Ratio: 2.40:1
Stream size: 11.2 GiB (80%)

+ Audio #0: Vietnamese / Dolby Digital (A_AC3 / AC-3)
Duration: 03:01:36.736
Bit rate: 640 kb/s (CBR) / 6 channels
Sampling rate: 48.0 kHz
Stream size: 831 MiB (6%)

+ Audio #1: English / DTS (A_DTS / DTS)
Duration: 03:01:11.371
Bit rate: 1 509 kb/s (CBR) / 6 channels
Sampling rate: 48.0 kHz
Stream size: 1.91 GiB (14%)

+ Text #0: Vietnamese
Format: UTF-8
Stream size: 89.2 KiB (0%)

DOWNLOAD

[collapse]
Avengers.Endgame.2019.ViE.1080p.BluRay.DD5.1.x264-SPARKS.mkv

General
Name: Avengers.Endgame.2019.ViE.1080p.BluRay.DD5.1.x264-SPARKS.mkv
Format: Matroska (Version 4)
Duration: 03:01:11.560
Size: 12.51 GiB
Bitrate: 9 883 kb/s
Frame rate: 23.976

Video
Format: AVC (High@L4.1)
Resolution: 1920 x 808 (8 857 kb/s)
Ratio: 2.40:1
Stream size: 11.2 GiB (90%)

+ Audio #0: Vietnamese / Dolby Digital (A_AC3 / AC-3)
Duration: 03:01:10.560
Bit rate: 384 kb/s (CBR) / 6 channels
Sampling rate: 48.0 kHz
Stream size: 498 MiB (4%)

+ Audio #1: English / Dolby Digital (A_AC3 / AC-3)
Duration: 03:01:11.392
Bit rate: 640 kb/s (CBR) / 6 channels
Sampling rate: 48.0 kHz
Stream size: 829 MiB (6%)

+ Text #0: Vietnamese
Format: UTF-8
Stream size: 88.3 KiB (0%)

+ Text #1: English
Format: UTF-8
Stream size: 68.9 KiB (0%)

DOWNLOAD

[collapse]
Avengers.Endgame.2019.ViE.1080p.BluRay.DD5.1.x264-MPAD.mkv

General
Name: Avengers.Endgame.2019.ViE.1080p.BluRay.DD5.1.x264-MPAD.mkv
Format: Matroska (Version 4)
Duration: 03:01:36.768
Size: 5.051 GiB
Bitrate: 3 981 kb/s
Frame rate: 23.976

Video
Format: AVC (High@L4.1)
Resolution: 1920 x 804 (3 604 kb/s)
Ratio: 2.40:1
Stream size: 4.56 GiB (90%)

+ Audio #0: Vietnamese / Dolby Digital (A_AC3 / AC-3)
Duration: 03:01:36.768
Bit rate: 192 kb/s (CBR) / 6 channels
Sampling rate: 48.0 kHz
Stream size: 249 MiB (5%)

+ Audio #1: English / Dolby Digital (A_AC3 / AC-3)
Duration: 03:01:11.392
Bit rate: 192 kb/s (CBR) / 6 channels
Sampling rate: 48.0 kHz
Stream size: 249 MiB (5%)

+ Text #0: Vietnamese
Format: UTF-8
Stream size: 89.2 KiB (0%)

DOWNLOAD

[collapse]
Avengers-Endgame 2019 ViE 1080p iTunes WEB-DL H264 DD 5.1-OurTV.mkv

General
Name: Avengers-Endgame 2019 ViE 1080p iTunes WEB-DL H264 DD 5.1-OurTV.mkv
Format: Matroska (Version 4)
Duration: 03:01:10.560
Size: 6.883 GiB
Bitrate: 5 439 kb/s
Frame rate: 23.976

Video
Format: AVC (High@L4)
Resolution: 1920 x 804 (4 537 kb/s)
Ratio: 2.40:1
Stream size: 5.74 GiB (83%)

Video
Format: V_QUICKTIME ()
Resolution: 640 x 268 (2 811 b/s)
Ratio: 2.40:1
Stream size: 3.57 MiB (0%)

+ Audio #0: Vietnamese / Dolby Digital (A_AC3 / AC-3)
Duration: 03:01:10.560
Bit rate: 384 kb/s (CBR) / 6 channels
Sampling rate: 48.0 kHz
Stream size: 498 MiB (7%)

+ Audio #1: English / Dolby Digital (A_AC3 / AC-3)
Duration: 03:01:10.528
Bit rate: 384 kb/s (CBR) / 6 channels
Sampling rate: 48.0 kHz
Stream size: 498 MiB (7%)

+ Audio #2: English / AAC (A_AAC-2 / AAC LC)
Duration: 03:01:10.378
Bit rate: 126 kb/s () / 2 channels
Sampling rate: 48.0 kHz
Stream size: 163 MiB (2%)

+ Text #0: English
Format: UTF-8
Stream size: 59.6 KiB (0%)

+ Text #1: Chinese
Format: UTF-8
Stream size: 42.9 KiB (0%)

+ Text #2: Chinese
Format: UTF-8
Stream size: 47.5 KiB (0%)

+ Text #3: Thai
Format: UTF-8
Stream size: 115 KiB (0%)

+ Text #4: Indonesian
Format: UTF-8
Stream size: 54.4 KiB (0%)

DOWNLOAD

[collapse]
Avengers.Endgame.2019.ViE.1080p.AMZN.WEB-DL.DDP5.1.H.264-NTG.mkv

General
Name: Avengers.Endgame.2019.ViE.1080p.AMZN.WEB-DL.DDP5.1.H.264-NTG.mkv
Format: Matroska (Version 4)
Duration: 03:01:51.117
Size: 13.99 GiB
Bitrate: 11.0 Mb/s
Frame rate: 23.976

Video
Format: AVC (High@L4)
Resolution: 1920 x 1080 (10 000 kb/s)
Ratio: 16:9
Stream size: 12.4 GiB (88%)

+ Audio #0: Vietnamese / Dolby Digital (A_AC3 / AC-3)
Duration: 03:01:36.224
Bit rate: 640 kb/s (CBR) / 6 channels
Sampling rate: 48.0 kHz
Stream size: 831 MiB (6%)

+ Audio #1: English / Dolby Digital Plus with Dolby Atmos (A_EAC3 / E-AC-3 JOC)
Duration: 03:01:51.104
Bit rate: 640 kb/s (CBR) / 6 channels
Sampling rate: 48.0 kHz
Stream size: 832 MiB (6%)

+ Text #0: Vietnamese
Format: UTF-8
Stream size: 89.2 KiB (0%)

+ Text #1: English
Format: UTF-8
Stream size: 61.9 KiB (0%)

+ Text #2: English
Format: UTF-8
Stream size: 66.9 KiB (0%)

DOWNLOAD

[collapse]
Avengers-Endgame 2019 ViE HDRip 1080p x264 AC3-EVO.mkv

General
Name: Avengers-Endgame 2019 ViE HDRip 1080p x264 AC3-EVO.mkv
Format: Matroska (Version 4)
Duration: 03:01:34.779
Size: 11.09 GiB
Bitrate: 8 743 kb/s
Frame rate: 29.970

Video
Format: AVC (High@L4.1)
Resolution: 1920 x 800 (8 063 kb/s)
Ratio: 2.40:1
Stream size: 10.2 GiB (92%)

+ Audio #0: Vietnamese / Dolby Digital (A_AC3 / AC-3)
Duration: 03:01:34.624
Bit rate: 320 kb/s (CBR) / 2 channels
Sampling rate: 48.0 kHz
Stream size: 416 MiB (4%)

+ Audio #1: English / Dolby Digital (A_AC3 / AC-3)
Duration: 03:01:34.592
Bit rate: 384 kb/s (CBR) / 2 channels
Sampling rate: 48.0 kHz
Stream size: 499 MiB (4%)

DOWNLOAD

[collapse]
Avengers Endgame 2019 ViE 720p BluRay DTS-ES x264-MTeam.mkv

General
Name: Avengers Endgame 2019 ViE 720p BluRay DTS-ES x264-MTeam.mkv
Format: Matroska (Version 4)
Duration: 03:01:36.726
Size: 12.62 GiB
Bitrate: 9 952 kb/s
Frame rate: 23.976

Video
Format: AVC (High@L4.1)
Resolution: 1280 x 536 (6 758 kb/s)
Ratio: 2.40:1
Stream size: 8.55 GiB (68%)

+ Audio #0: Vietnamese / DTS-ES Matrix (A_DTS / DTS ES)
Duration: 03:01:36.726
Bit rate: 1 509 kb/s (CBR) / 6 channels
Sampling rate: 48.0 kHz
Stream size: 1.91 GiB (15%)

+ Audio #1: Vietnamese / HE-AAC (A_AAC-2 / AAC LC SBR)
Duration: 03:01:36.683
Bit rate: 192 kb/s () / 6 channels
Sampling rate: 48.0 kHz
Stream size: 249 MiB (2%)

+ Audio #2: English / DTS-ES Matrix (A_DTS / DTS ES)
Duration: 03:01:11.392
Bit rate: 1 509 kb/s (CBR) / 6 channels
Sampling rate: 48.0 kHz
Stream size: 1.91 GiB (15%)

+ Text #0: Vietnamese
Format: UTF-8
Stream size: 89.2 KiB (0%)

DOWNLOAD

[collapse]
Avengers Endgame 2019 ViE 720p BluRay DTS x264-HDChina.mkv

General
Name: Avengers-Endgame 2019 ViE 720p BluRay DTS x264-HDChina.mkv
Format: Matroska (Version 4)
Duration: 03:01:11.392
Size: 10.79 GiB
Bitrate: 8 526 kb/s
Frame rate: 23.976

Video
Format: AVC (High@L4.1)
Resolution: 1280 x 536 (5 500 kb/s)
Ratio: 2.40:1
Stream size: 6.95 GiB (64%)

+ Audio #0: Vietnamese / DTS (A_DTS / DTS)
Duration: 03:01:11.392
Bit rate: 1 509 kb/s (CBR) / 6 channels
Sampling rate: 48.0 kHz
Stream size: 1.91 GiB (18%)

+ Audio #1: English / DTS (A_DTS / DTS)
Duration: 03:01:11.371
Bit rate: 1 509 kb/s (CBR) / 6 channels
Sampling rate: 48.0 kHz
Stream size: 1.91 GiB (18%)

+ Text #0: Vietnamese
Format: UTF-8
Stream size: 89.2 KiB (0%)

+ Text #1: English
Format: UTF-8
Stream size: 61.1 KiB (0%)

+ Text #2: English
Format: UTF-8
Stream size: 68.3 KiB (0%)

+ Text #3: English
Format: UTF-8
Stream size: 86.9 KiB (0%)

+ Text #4: English
Format: PGS
Stream size: 43.8 MiB (0%)

DOWNLOAD

[collapse]
Avengers Endgame 2019 ViE 720p BluRay DTS x264-SPARKS.mkv

General
Name: Avengers Endgame 2019 ViE 720p BluRay DTS x264-SPARKS.mkv
Format: Matroska (Version 4)
Duration: 03:01:36.736
Size: 8.465 GiB
Bitrate: 6 673 kb/s
Frame rate: 23.976

Video
Format: AVC (High@L4.1)
Resolution: 1280 x 536 (4 536 kb/s)
Ratio: 2.40:1
Stream size: 5.74 GiB (68%)

+ Audio #0: Vietnamese / Dolby Digital (A_AC3 / AC-3)
Duration: 03:01:36.736
Bit rate: 640 kb/s (CBR) / 6 channels
Sampling rate: 48.0 kHz
Stream size: 831 MiB (10%)

+ Audio #1: English / DTS (A_DTS / DTS)
Duration: 03:01:11.371
Bit rate: 1 509 kb/s (CBR) / 6 channels
Sampling rate: 48.0 kHz
Stream size: 1.91 GiB (23%)

+ Text #0: Vietnamese
Format: UTF-8
Stream size: 89.2 KiB (0%)

DOWNLOAD

[collapse]
Avengers-Endgame 2019 ViE 720p BluRay DTS x264-HDChina.mkv

General
Name: Avengers Endgame 2019 ViE 720p BluRay DTS x264-HDChina.mkv
Format: Matroska (Version 4)
Duration: 03:01:36.768
Size: 11.04 GiB
Bitrate: 8 700 kb/s
Frame rate: 23.976

Video
Format: AVC (High@L4.1)
Resolution: 1280 x 536 (5 500 kb/s)
Ratio: 2.40:1
Stream size: 6.95 GiB (63%)

+ Audio #0: Vietnamese / DTS (A_DTS / DTS)
Duration: 03:01:36.704
Bit rate: 1 509 kb/s (CBR) / 6 channels
Sampling rate: 48.0 kHz
Stream size: 1.91 GiB (17%)

+ Audio #1: Vietnamese / Dolby Digital (A_AC3 / AC-3)
Duration: 03:01:36.768
Bit rate: 192 kb/s (CBR) / 6 channels
Sampling rate: 48.0 kHz
Stream size: 249 MiB (2%)

+ Audio #2: English / DTS (A_DTS / DTS)
Duration: 03:01:11.371
Bit rate: 1 509 kb/s (CBR) / 6 channels
Sampling rate: 48.0 kHz
Stream size: 1.91 GiB (17%)

+ Text #0: Vietnamese
Format: UTF-8
Stream size: 89.2 KiB (0%)

+ Text #1: English
Format: PGS
Stream size: 43.8 MiB (0%)

DOWNLOAD

[collapse]
Avengers.Endgame.2019.ViE.mHD.BluRay.DD5.1.x264-TRiM.mkv

General
Name: Avengers.Endgame.2019.ViE.mHD.BluRay.DD5.1.x264-TRiM.mkv
Format: Matroska (Version 4)
Duration: 03:01:11.560
Size: 4.871 GiB
Bitrate: 3 848 kb/s
Frame rate: 23.976

Video
Format: AVC (High@L4.1)
Resolution: 1280 x 536 (2 820 kb/s)
Ratio: 2.40:1
Stream size: 3.57 GiB (73%)

+ Audio #0: Vietnamese / Dolby Digital (A_AC3 / AC-3)
Duration: 03:01:10.560
Bit rate: 384 kb/s (CBR) / 6 channels
Sampling rate: 48.0 kHz
Stream size: 498 MiB (10%)

+ Audio #1: English / Dolby Digital (A_AC3 / AC-3)
Duration: 03:01:11.392
Bit rate: 640 kb/s (CBR) / 6 channels
Sampling rate: 48.0 kHz
Stream size: 829 MiB (17%)

+ Text #0: Vietnamese
Format: UTF-8
Stream size: 86.9 KiB (0%)

+ Text #1: English
Format: UTF-8
Stream size: 61.4 KiB (0%)

DOWNLOAD

[collapse]

5 comments

  1. Avengers Endgame 2019 ViE 1080p Blu-ray Remux AVC TrueHD Atmos 7.1-HDT.mkv
    Avengers Endgame 2019 ViE 2160p UHD BluRay TrueHD Atmos 7.1 HDR x265-CHD.mkv
    Avengers.Endgame.2019.ViE.1080p.BluRay.DTS-HD.MA.7.1.x264-HDChina.mkv
    Avengers.Endgame.2019.ViE.1080p.AMZN.WEB-DL.DDP5.1.H.264-NTG.mkv

  2. Avengers Endgame 2019 ViE 2160p UHD Blu-ray Remux HEVC TrueHD Atmos 7.1-HDT.mkv
    Avengers.Endgame.2019.ViE.2160p.10bit.HDR.BluRay.8CH.x265.HEVC-PSA.mkv
    Avengers.Endgame.2019.ViE.1080p.10bit.BluRay.8CH.x265.HEVC-PSA.mkv

Gửi phản hồi