ĐỊA CHẤN (The Quake)

Posted by

Skjelvet (2018) 1h 46min | Action, Drama, Thriller | 31 August 2018 (Norway) Summary: In 1904 an earthquake of magnitude 5.4 on the Richter scale shook Oslo, with an epicenter in the "Oslo Graben" which runs under the Norwegian capital. There are now signs that indicate that we can expect a major future earthquake in Oslo.
Countries: NorwayLanguages: Norwegian
DVD5

Hệ: NTSC
Tỷ lệ: 16:9
Âm thanh: Anh (5.1), Na Uy (5.1)
Phụ đề: Anh, Tây Ban Nha
Thời lượng: 1:48:05
Menu: Có
Extra: Không
DOWNLOAD

[collapse]
DVD5 ViE

Hệ: NTSC
Tỷ lệ: 16:9
Âm thanh: Na Uy (5.1), Việt (5.1)
Phụ đề: Anh, Tây Ban Nha, Việt
Thời lượng: 1:48:04
Menu: Có
Extra: Không
DOWNLOAD

[collapse]
The Quake 2018 ViE 1080p BluRay DD5.1 x265 10bit-HDS.mkv

General
Name: The Quake 2018 ViE 1080p BluRay DD5.1 x265 10bit-HDS.mkv
Format: Matroska (Version 4)
Duration: 01:48:09.000
Size: 4.011 GiB
Bitrate: 5 310 kb/s
Frame rate: 24.000

Video
Format: HEVC (Main 10@L5.1@High)
Resolution: 1920 x 804 (4 007 kb/s)
Ratio: 2.40:1
Stream size: 3.03 GiB (75%)

+ Audio #0: Vietnamese / Dolby Digital (A_AC3 / AC-3)
Duration: 01:48:07.008
Bit rate: 640 kb/s (CBR) / 6 channels
Sampling rate: 48.0 kHz
Stream size: 495 MiB (12%)

+ Audio #1: Norwegian / Dolby Digital (A_AC3 / AC-3)
Duration: 01:48:07.008
Bit rate: 640 kb/s (CBR) / 6 channels
Sampling rate: 48.0 kHz
Stream size: 495 MiB (12%)

+ Text #0: Vietnamese
Format: UTF-8
Stream size: 26.2 KiB (0%)

+ Text #1: English
Format: UTF-8
Stream size: 19.1 KiB (0%)

+ Text #2: English
Format: PGS
Stream size: 12.4 MiB (0%)

+ Text #3: Chinese
Format: PGS
Stream size: 10.5 MiB (0%)

DOWNLOAD

[collapse]
The.Quake.A.K.A.Skjelvet.2018.ViE.NORWEGIAN.DUAL-AUDIO.NOR-ENG.1080p.10bit.BluRay.6CH.x265.HEVC-PSA.mkv

General
Name: The.Quake.A.K.A.Skjelvet.2018.ViE.NORWEGIAN.DUAL-AUDIO.NOR-ENG.1080p.10bit.BluRay.6CH.x265.HEVC-PSA.mkv
Format: Matroska (Version 4)
Duration: 01:48:05.650
Size: 1.710 GiB
Bitrate: 2 265 kb/s
Frame rate: 24.000

Video
Format: HEVC (Main 10@L4@Main)
Resolution: 1920 x 808 (1 724 kb/s)
Ratio: 2.40:1
Stream size: 1.30 GiB (76%)

+ Audio #0: Vietnamese / AAC (A_AAC-2 / AAC LC)
Duration: 01:48:04.334
Bit rate: 128 kb/s () / 2 channels
Sampling rate: 44.1 kHz
Stream size: 98.9 MiB (6%)

+ Audio #1: Norwegian / HE-AAC (A_AAC-2 / AAC LC SBR)
Duration: 01:48:05.419
Bit rate: 204 kb/s () / 6 channels
Sampling rate: 48.0 kHz
Stream size: 157 MiB (9%)

+ Audio #2: English / HE-AAC (A_AAC-2 / AAC LC SBR)
Duration: 01:48:04.395
Bit rate: 206 kb/s () / 6 channels
Sampling rate: 48.0 kHz
Stream size: 160 MiB (9%)

+ Text #0: Vietnamese
Format: UTF-8
Stream size: 26.2 KiB (0%)

+ Text #1: English
Format: UTF-8
Stream size: 19.1 KiB (0%)

DOWNLOAD

[collapse]
The.Quake.2018.ViE.1080p.BluRay.Atmos.TrueHD.7.1.x264-HDH.mkv

General
Name: The.Quake.2018.ViE.1080p.BluRay.Atmos.TrueHD.7.1.x264-HDH.mkv
Format: Matroska (Version 4)
Duration: 01:48:09.000
Size: 13.12 GiB
Bitrate: 17.4 Mb/s
Frame rate: 24.000

Video
Format: AVC (High@L4.1)
Resolution: 1920 x 804 (11.0 Mb/s)
Ratio: 2.40:1
Stream size: 8.29 GiB (63%)

+ Audio #0: Vietnamese / Dolby Digital (A_AC3 / AC-3)
Duration: 01:48:07.075
Bit rate: 320 kb/s (CBR) / 2 channels
Sampling rate: 44.1 kHz
Stream size: 247 MiB (2%)

+ Audio #1: Norwegian / Dolby TrueHD with Dolby Atmos (A_TRUEHD / MLP FBA 16-ch)
Duration: 01:48:06.999
Bit rate: 4 715 kb/s (VBR) / 8 channels
Sampling rate: 48.0 kHz
Stream size: 3.56 GiB (27%)

+ Audio #2: Norwegian / Dolby Digital (A_AC3 / AC-3)
Duration: 01:48:07.008
Bit rate: 640 kb/s (CBR) / 6 channels
Sampling rate: 48.0 kHz
Stream size: 495 MiB (4%)

+ Audio #3: Norwegian / Dolby Digital (A_AC3 / AC-3)
Duration: 01:48:07.008
Bit rate: 640 kb/s (CBR) / 6 channels
Sampling rate: 48.0 kHz
Stream size: 495 MiB (4%)

+ Text #0: Chinese
Format: PGS
Stream size: 5.53 MiB (0%)

+ Text #1: English
Format: PGS
Stream size: 5.29 MiB (0%)

DOWNLOAD

[collapse]
The Quake 2018 ViE 1080p BluRay TrueHD 7.1 x264-HDH.mkv

General
Name: The Quake 2018 ViE 1080p BluRay TrueHD 7.1 x264-HDH.mkv
Format: Matroska (Version 4)
Duration: 01:48:09.000
Size: 12.88 GiB
Bitrate: 17.1 Mb/s
Frame rate: 24.000

Video
Format: AVC (High@L4.1)
Resolution: 1920 x 804 (11.0 Mb/s)
Ratio: 2.40:1
Stream size: 8.29 GiB (64%)

+ Audio #0: Vietnamese / Dolby Digital (A_AC3 / AC-3)
Duration: 01:48:07.008
Bit rate: 640 kb/s (CBR) / 6 channels
Sampling rate: 48.0 kHz
Stream size: 495 MiB (4%)

+ Audio #1: Norwegian / Dolby TrueHD with Dolby Atmos (A_TRUEHD / MLP FBA 16-ch)
Duration: 01:48:07.001
Bit rate: 4 715 kb/s (VBR) / 8 channels
Sampling rate: 48.0 kHz
Stream size: 3.56 GiB (28%)

+ Audio #2: Norwegian / Dolby Digital (A_AC3 / AC-3)
Duration: 01:48:07.008
Bit rate: 640 kb/s (CBR) / 6 channels
Sampling rate: 48.0 kHz
Stream size: 495 MiB (4%)

+ Text #0: Vietnamese
Format: UTF-8
Stream size: 26.2 KiB (0%)

+ Text #1: English
Format: UTF-8
Stream size: 19.1 KiB (0%)

+ Text #2: English
Format: PGS
Stream size: 12.4 MiB (0%)

+ Text #3: Chinese
Format: PGS
Stream size: 10.5 MiB (0%)

DOWNLOAD

[collapse]

One comment

Gửi phản hồi