SĂN QUỶ (Blade)

Posted by

Blade (1998) 2h | Action, Horror, Sci-Fi | 21 August 1998 (USA) Summary: A half-vampire, half-mortal man becomes a protector of the mortal race, while slaying evil vampires.
Countries: USALanguages: English, Russian, Serbian
DVD5

Hệ: NTSC
Tỷ lệ: 16:9
Âm thanh: Anh (5.1), Bồ Đào Nha (2.0), Tây Ban Nha (2.0)
Phụ đề: Anh, Bồ Đào Nha, Tây Ban Nha
Thời lượng: 2:00:07
Menu: Có
Extra: Không
DOWNLOAD

[collapse]
DVD5 ViE

Hệ: NTSC
Tỷ lệ: 16:9
Âm thanh: Anh (5.1), Việt (5.1)
Phụ đề: Anh, Bồ Đào Nha, Tây Ban Nha, Việt
Thời lượng: 2:00:07
Menu: Có
Extra: Không
DOWNLOAD

[collapse]
Blade.1998.ViE.1080p.BluRay.DTS.x264.mkv

General
Name: Blade.1998.ViE.1080p.BluRay.DTS.x264.mkv
Format: Matroska (Version 4)
Duration: 02:00:17.736
Size: 13.09 GiB
Bitrate: 15.6 Mb/s
Frame rate: 23.976

Video
Format: AVC (High@L4.1)
Resolution: 1920 x 800 (12.5 Mb/s)
Ratio: 2.40:1
Stream size: 10.5 GiB (80%)

+ Audio #0: Vietnamese / DTS-ES Discrete (A_DTS / DTS ES XXCH)
Duration: 02:00:17.654
Bit rate: 1 509 kb/s (CBR) / 6 channels
Sampling rate: 48.0 kHz
Stream size: 1.27 GiB (10%)

+ Audio #1: English / DTS-ES Discrete (A_DTS / DTS ES XXCH)
Duration: 02:00:17.632
Bit rate: 1 509 kb/s (CBR) / 6 channels
Sampling rate: 48.0 kHz
Stream size: 1.27 GiB (10%)

+ Audio #2: English / MPEG Audio (A_MPEG/L3 / MPEG Audio)
Duration: 02:00:17.736
Bit rate: 64.0 kb/s (CBR) / 2 channels
Sampling rate: 24.0 kHz
Stream size: 55.1 MiB (0%)

+ Text #0: Vietnamese
Format: UTF-8
Stream size: 35.9 KiB (0%)

+ Text #1: English
Format: UTF-8
Stream size: 29.3 KiB (0%)

DOWNLOAD

[collapse]
Blade.1998.ViE.mHD.BluRay.DD5.1.x264-EPiK.mkv

General
Name: Blade.1998.ViE.mHD.BluRay.DD5.1.x264-EPiK.mkv
Format: Matroska (Version 4)
Duration: 02:00:16.209
Size: 2.565 GiB
Bitrate: 3 053 kb/s
Frame rate: 23.976

Video
Format: AVC (High@L4.1)
Resolution: 1280 x 542 (2 155 kb/s)
Ratio: 2.35:1
Stream size: 1.81 GiB (71%)

+ Audio #0: Vietnamese / Dolby Digital (A_AC3 / AC-3)
Duration: 02:00:14.304
Bit rate: 448 kb/s (CBR) / 6 channels
Sampling rate: 48.0 kHz
Stream size: 385 MiB (15%)

+ Audio #1: English / Dolby Digital (A_AC3 / AC-3)
Duration: 02:00:14.272
Bit rate: 448 kb/s (CBR) / 6 channels
Sampling rate: 48.0 kHz
Stream size: 385 MiB (15%)

+ Text #0: Vietnamese
Format: UTF-8
Stream size: 35.8 KiB (0%)

+ Text #1: English
Format: UTF-8
Stream size: 27.7 KiB (0%)

DOWNLOAD

[collapse]

Gửi phản hồi