SĂN QUỶ 2 (Blade II)

Posted by

Blade II (2002) 1h 57min | Action, Horror, Sci-Fi | 22 March 2002 (USA) Summary: Blade forms an uneasy alliance with the vampire council in order to combat the Reapers, who are feeding on vampires.
Countries: Germany, USALanguages: English, Romanian, Czech
DVD5

Hệ: NTSC
Tỷ lệ: 16:9
Âm thanh: Anh (5.1), Tây Ban Nha (2.0)
Phụ đề: Anh, Tây Ban Nha
Thời lượng: 1:56:43
Menu: Có
Extra: Không
DOWNLOAD

[collapse]
DVD5 ViE

Hệ: NTSC
Tỷ lệ: 16:9
Âm thanh: Anh (5.1), Việt (5.1)
Phụ đề: Anh, Tây Ban Nha, Việt
Thời lượng: 1:56:42
Menu: Có
Extra: Không
DOWNLOAD

[collapse]
Blade.II.2002.ViE.1080p.BluRay.DTS.x264.mkv

General
Name: Blade.II.2002.ViE.1080p.BluRay.DTS.x264.mkv
Format: Matroska (Version 4)
Duration: 01:56:53.520
Size: 12.83 GiB
Bitrate: 15.7 Mb/s
Frame rate: 23.976

Video
Format: AVC (High@L4.1)
Resolution: 1920 x 1080 (12.5 Mb/s)
Ratio: 16:9
Stream size: 10.2 GiB (80%)

+ Audio #0: Vietnamese / DTS (A_DTS / DTS)
Duration: 01:56:53.451
Bit rate: 1 509 kb/s (CBR) / 6 channels
Sampling rate: 48.0 kHz
Stream size: 1.23 GiB (10%)

+ Audio #1: English / DTS (A_DTS / DTS)
Duration: 01:56:53.429
Bit rate: 1 509 kb/s (CBR) / 6 channels
Sampling rate: 48.0 kHz
Stream size: 1.23 GiB (10%)

+ Audio #2: English / MPEG Audio (A_MPEG/L3 / MPEG Audio)
Duration: 01:56:53.520
Bit rate: 64.0 kb/s (CBR) / 2 channels
Sampling rate: 24.0 kHz
Stream size: 53.5 MiB (0%)

+ Audio #3: English / MPEG Audio (A_MPEG/L3 / MPEG Audio)
Duration: 01:56:53.520
Bit rate: 64.0 kb/s (CBR) / 2 channels
Sampling rate: 24.0 kHz
Stream size: 53.5 MiB (0%)

+ Audio #4: English / MPEG Audio (A_MPEG/L3 / MPEG Audio)
Duration: 01:56:53.520
Bit rate: 64.0 kb/s (CBR) / 2 channels
Sampling rate: 24.0 kHz
Stream size: 53.5 MiB (0%)

+ Text #0: English
Format: UTF-8
Stream size: 22.1 KiB (0%)

DOWNLOAD

[collapse]
Blade.II.2002.ViE.mHD.BluRay.DD5.1.x264-EPiK.mkv

General
Name: Blade.II.2002.ViE.mHD.BluRay.DD5.1.x264-EPiK.mkv
Format: Matroska (Version 4)
Duration: 01:56:53.024
Size: 2.991 GiB
Bitrate: 3 663 kb/s
Frame rate: 23.976

Video
Format: AVC (High@L4.1)
Resolution: 1280 x 720 (2 765 kb/s)
Ratio: 16:9
Stream size: 2.26 GiB (75%)

+ Audio #0: Vietnamese / Dolby Digital (A_AC3 / AC-3)
Duration: 01:56:53.024
Bit rate: 448 kb/s (CBR) / 6 channels
Sampling rate: 48.0 kHz
Stream size: 375 MiB (12%)

+ Audio #1: English / Dolby Digital (A_AC3 / AC-3)
Duration: 01:56:52.992
Bit rate: 448 kb/s (CBR) / 6 channels
Sampling rate: 48.0 kHz
Stream size: 375 MiB (12%)

+ Text #0: Vietnamese
Format: UTF-8
Stream size: 24.4 KiB (0%)

+ Text #1: English
Format: UTF-8
Stream size: 21.6 KiB (0%)

DOWNLOAD

[collapse]

Gửi phản hồi