LẬT TẨY (Extraction)

Posted by

Lât Tây (2015) 1h 32min | Action, Thriller | 8 January 2016 (Vietnam) Summary: A former CIA operative is kidnapped by a group of terrorists. When his son learns there is no plan for his father to be saved, he launches his own rescue operation.
Countries: USA, UK, CanadaLanguages: English
DVD5

Hệ: NTSC
Tỷ lệ: 16:9
Âm thanh: Anh (5.1), Tây Ban Nha (5.1)
Phụ đề: Anh, Tây Ban Nha
Thời lượng: 1:22:18
Menu: Có
Extra: Có
DOWNLOAD

[collapse]
DVD5 ViE

Hệ: NTSC
Tỷ lệ: 16:9
Âm thanh: Anh (5.1), Việt (5.1)
Phụ đề: Anh, Tây Ban Nha, Việt
Thời lượng: 1:22:18
Menu: Có
Extra: Có
DOWNLOAD

[collapse]
Extraction 2015 ViE 720p BluRay DTS x264-DON.mkv

General
Name: Extraction 2015 ViE 720p BluRay DTS x264-DON.mkv
Format: Matroska (Version 4)
Duration: 01:22:23.040
Size: 6.431 GiB
Bitrate: 11.2 Mb/s
Frame rate: 23.976

Video
Format: AVC (High@L4.1)
Resolution: 1280 x 720 (8 089 kb/s)
Ratio: 16:9
Stream size: 4.65 GiB (72%)

+ Audio #0: Vietnamese / DTS (A_DTS / DTS)
Duration: 01:22:23.008
Bit rate: 1 509 kb/s (CBR) / 6 channels
Sampling rate: 48.0 kHz
Stream size: 889 MiB (14%)

+ Audio #1: English / DTS (A_DTS / DTS)
Duration: 01:22:22.987
Bit rate: 1 509 kb/s (CBR) / 6 channels
Sampling rate: 48.0 kHz
Stream size: 889 MiB (14%)

+ Audio #2: English / Dolby Digital (A_AC3 / AC-3)
Duration: 01:22:23.040
Bit rate: 64.0 kb/s (CBR) / 2 channels
Sampling rate: 48.0 kHz
Stream size: 37.7 MiB (1%)

+ Text #0: English
Format: UTF-8
Stream size: 24.9 KiB (0%)

+ Text #1: English
Format: UTF-8
Stream size: 26.8 KiB (0%)

+ Text #2: Finnish
Format: UTF-8
Stream size: 14.7 KiB (0%)

+ Text #3: Hungarian
Format: UTF-8
Stream size: 23.7 KiB (0%)

+ Text #4: Portuguese
Format: UTF-8
Stream size: 26.3 KiB (0%)

+ Text #5: Romanian
Format: UTF-8
Stream size: 27.0 KiB (0%)

+ Text #6: Spanish
Format: UTF-8
Stream size: 28.2 KiB (0%)

+ Text #7: Vietnamese
Format: UTF-8
Stream size: 31.8 KiB (0%)

DOWNLOAD

[collapse]
Extraction.2015.ViE.mHD.BluRay.DD5.1.x264-TayTO.mkv

General
Name: Extraction.2015.ViE.mHD.BluRay.DD5.1.x264-TayTO.mkv
Format: Matroska (Version 4)
Duration: 01:22:23.040
Size: 2.458 GiB
Bitrate: 4 271 kb/s
Frame rate: 23.976

Video
Format: AVC (High@L4.1)
Resolution: 1280 x 720 (2 988 kb/s)
Ratio: 16:9
Stream size: 1.72 GiB (70%)

+ Audio #0: Vietnamese / Dolby Digital (A_AC3 / AC-3)
Duration: 01:22:23.040
Bit rate: 640 kb/s (CBR) / 6 channels
Sampling rate: 48.0 kHz
Stream size: 377 MiB (15%)

+ Audio #1: English / Dolby Digital (A_AC3 / AC-3)
Duration: 01:22:23.008
Bit rate: 640 kb/s (CBR) / 6 channels
Sampling rate: 48.0 kHz
Stream size: 377 MiB (15%)

+ Text #0: Vietnamese
Format: UTF-8
Stream size: 31.8 KiB (0%)

+ Text #1: English
Format: UTF-8
Stream size: 25.0 KiB (0%)

+ Text #2: English
Format: UTF-8
Stream size: 27.0 KiB (0%)

DOWNLOAD

[collapse]
Extraction.ViE.2015.mHD.BluRay.DD5.1.x264-TRiM.mkv

General
Name: Extraction.ViE.2015.mHD.BluRay.DD5.1.x264-TRiM.mkv
Format: Matroska (Version 4)
Duration: 01:22:23.008
Size: 2.286 GiB
Bitrate: 3 973 kb/s
Frame rate: 23.976

Video
Format: AVC (High@L4.1)
Resolution: 1280 x 720 (2 699 kb/s)
Ratio: 16:9
Stream size: 1.55 GiB (68%)

+ Audio #0: Vietnamese / Dolby Digital (A_AC3 / AC-3)
Duration: 01:22:23.008
Bit rate: 640 kb/s (CBR) / 6 channels
Sampling rate: 48.0 kHz
Stream size: 377 MiB (16%)

+ Audio #1: English / Dolby Digital (A_AC3 / AC-3)
Duration: 01:22:23.008
Bit rate: 640 kb/s (CBR) / 6 channels
Sampling rate: 48.0 kHz
Stream size: 377 MiB (16%)

+ Text #0: Vietnamese
Format: UTF-8
Stream size: 31.8 KiB (0%)

+ Text #1: English
Format: UTF-8
Stream size: 24.9 KiB (0%)

DOWNLOAD

[collapse]

Gửi phản hồi