GIA ĐÌNH ĐẠI CHIẾN (Fighting with My Family)

Posted by

Fighting with My Family (2019) 1h 48min | Biography, Comedy, Drama | 22 February 2019 (USA) Summary: A former wrestler and his family make a living performing at small venues around the country while his kids dream of joining World Wrestling Entertainment.
Countries: UK, USALanguages: English
DVD5

Hệ: NTSC
Tỷ lệ: 16:9
Âm thanh: Anh (5.1), Tây Ban Nha (5.1)
Phụ đề: Anh, Pháp, Tây Ban Nha
Thời lượng: 1:48:22
Menu: Có
Extra: Có
DOWNLOAD

[collapse]
DVD5 ViE

Hệ: NTSC
Tỷ lệ: 16:9
Âm thanh: Anh (5.1), Việt (5.1)
Phụ đề: Anh, Pháp, Tây Ban Nha, Việt
Thời lượng: 1:48:22
Menu: Có
Extra: Có
DOWNLOAD

[collapse]
Fighting with My Family 2019 ViE BluRay 1080p DTS-HD MA 5.1 x265 10bit-CHD.mkv

General
Name: Fighting with My Family 2019 ViE BluRay 1080p DTS-HD MA 5.1 x265 10bit-CHD.mkv
Format: Matroska (Version 4)
Duration: 01:48:28.789
Size: 9.542 GiB
Bitrate: 12.6 Mb/s
Frame rate: 23.976

Video
Format: HEVC (Main 10@L4@Main)
Resolution: 1920 x 800 (5 421 kb/s)
Ratio: 2.40:1
Stream size: 4.11 GiB (43%)

+ Audio #0: Vietnamese / DTS-HD Master Audio (A_DTS / DTS XLL)
Duration: 01:48:28.789
Bit rate: 3 544 kb/s (VBR) / 6 channels
Sampling rate: 48.0 kHz
Stream size: 2.69 GiB (28%)

+ Audio #1: English / DTS-HD Master Audio (A_DTS / DTS XLL)
Duration: 01:48:28.768
Bit rate: 3 498 kb/s (VBR) / 6 channels
Sampling rate: 48.0 kHz
Stream size: 2.65 GiB (28%)

+ Text #0: Vietnamese
Format: UTF-8
Stream size: 73.1 KiB (0%)

+ Text #1: English
Format: UTF-8
Stream size: 56.2 KiB (0%)

+ Text #2: English
Format: UTF-8
Stream size: 64.1 KiB (0%)

+ Text #3: English
Format: PGS
Stream size: 41.7 MiB (0%)

+ Text #4: Chinese
Format: PGS
Stream size: 53.4 MiB (1%)

+ Text #5: Chinese
Format: PGS
Stream size: 33.1 MiB (0%)

+ Text #6: Chinese
Format: PGS
Stream size: 55.4 MiB (1%)

+ Text #7: Chinese
Format: PGS
Stream size: 35.2 MiB (0%)

DOWNLOAD

[collapse]
Fighting with My Family 2019 ViE BluRay 1080p DTS-HD MA 5.1 x264-MTeam.mkv

General
Name: Fighting with My Family 2019 ViE BluRay 1080p DTS-HD MA 5.1 x264-MTeam.mkv
Format: Matroska (Version 4)
Duration: 01:48:28.790
Size: 14.02 GiB
Bitrate: 18.5 Mb/s
Frame rate: 23.976

Video
Format: AVC (High@L4.1)
Resolution: 1920 x 800 (11.4 Mb/s)
Ratio: 2.40:1
Stream size: 8.66 GiB (62%)

+ Audio #0: Vietnamese / DTS-HD Master Audio (A_DTS / DTS XLL)
Duration: 01:48:28.790
Bit rate: 3 544 kb/s (VBR) / 6 channels
Sampling rate: 48.0 kHz
Stream size: 2.69 GiB (19%)

+ Audio #1: English / DTS-HD Master Audio (A_DTS / DTS XLL)
Duration: 01:48:28.768
Bit rate: 3 498 kb/s (VBR) / 6 channels
Sampling rate: 48.0 kHz
Stream size: 2.65 GiB (19%)

+ Text #0: Vietnamese
Format: UTF-8
Stream size: 73.1 KiB (0%)

+ Text #1: English
Format: UTF-8
Stream size: 56.2 KiB (0%)

+ Text #2: English
Format: UTF-8
Stream size: 64.1 KiB (0%)

+ Text #3: English
Format: PGS
Stream size: 41.7 MiB (0%)

DOWNLOAD

[collapse]

Gửi phản hồi