ÁC THẦN (Legion)

Posted by

Legion (2010) 1h 40min | Action, Fantasy, Horror | 19 March 2010 (Vietnam) Summary: When a group of strangers at a dusty roadside diner come under attack by demonic forces, their only chance for survival lies with an archangel named Michael, who informs a pregnant waitress that her unborn child is humanity's last hope.
Countries: USALanguages: English
DVD5

Hệ: NTSC
Tỷ lệ: 16:9
Âm thanh: Anh (5.1), Tây Ban Nha (2.0)
Phụ đề: Tây Ban Nha
Thời lượng: 1:40:02
Menu: Có
Extra: Không
DOWNLOAD

[collapse]
DVD5 ViE

Hệ: NTSC
Tỷ lệ: 16:9
Âm thanh: Anh (5.1), Việt (5.1)
Phụ đề: Tây Ban Nha, Việt
Thời lượng: 1:40:02
Menu: Có
Extra: Không
DOWNLOAD

[collapse]
Legion.2010.ViE.Open.Matte.1080p.WEB-DL.DD5.1.H264-VAV.mkv

General
Name: Legion.2010.ViE.Open.Matte.1080p.WEB-DL.DD5.1.H264-VAV.mkv
Format: Matroska (Version 4)
Duration: 01:40:22.642
Size: 8.859 GiB
Bitrate: 12.6 Mb/s
Frame rate: 23.976

Video
Format: AVC (High@L4)
Resolution: 1920 x 1080 (11.4 Mb/s)
Ratio: 16:9
Stream size: 7.96 GiB (90%)

+ Audio #0: English / Dolby Digital Plus (A_EAC3 / E-AC-3)
Duration: 01:40:22.592
Bit rate: 640 kb/s (CBR) / 6 channels
Sampling rate: 48.0 kHz
Stream size: 459 MiB (5%)

+ Audio #1: Vietnamese / Dolby Digital (A_AC3 / AC-3)
Duration: 01:40:22.624
Bit rate: 640 kb/s (CBR) / 6 channels
Sampling rate: 48.0 kHz
Stream size: 459 MiB (5%)

+ Text #0: English
Format: UTF-8
Stream size: 30.3 KiB (0%)

+ Text #1: Vietnamese
Format: UTF-8
Stream size: 37.9 KiB (0%)

DOWNLOAD

[collapse]
Legion.2010.ViE.1080p.BluRay.DTS.x264-EbP.VAV.mkv

General
Name: Legion.2010.ViE.1080p.BluRay.DTS.x264-EbP.VAV.mkv
Format: Matroska (Version 2)
Duration: 01:40:08.000
Size: 11.20 GiB
Bitrate: 16.0 Mb/s
Frame rate: 23.976

Video
Format: AVC (High@L4.1)
Resolution: 1920 x 800 (13.0 Mb/s)
Ratio: 2.40:1
Stream size: 8.86 GiB (79%)

+ Audio #0: Vietnamese / DTS (A_DTS / DTS)
Duration: 01:40:08.000
Bit rate: 1 510 kb/s (CBR) / 6 channels
Sampling rate: 48.0 kHz
Stream size: 1.06 GiB (9%)

+ Audio #1: English / DTS (A_DTS / DTS)
Duration: 01:40:08.000
Bit rate: 1 509 kb/s (CBR) / 6 channels
Sampling rate: 48.0 kHz
Stream size: 1.06 GiB (9%)

+ Text #0: French
Format: UTF-8
Stream size:

+ Text #1: English
Format: UTF-8
Stream size:

+ Text #2: Vietnamese
Format: UTF-8
Stream size:

DOWNLOAD

[collapse]
Legion.2010.ViE.720p.BluRay.DTS.x264-EbP.VAV.mkv

General
Name: Legion.2010.ViE.720p.BluRay.DTS.x264-EbP.VAV.mkv
Format: Matroska (Version 2)
Duration: 01:40:08.000
Size: 7.002 GiB
Bitrate: 10.0 Mb/s
Frame rate: 23.976

Video
Format: AVC (High@L4.1)
Resolution: 1280 x 534 (6 793 kb/s)
Ratio: 2.40:1
Stream size: 4.75 GiB (68%)

+ Audio #0: Vietnamese / DTS (A_DTS / DTS)
Duration: 01:40:08.000
Bit rate: 1 510 kb/s (CBR) / 6 channels
Sampling rate: 48.0 kHz
Stream size: 1.06 GiB (15%)

+ Audio #1: English / DTS (A_DTS / DTS)
Duration: 01:40:08.000
Bit rate: 1 509 kb/s (CBR) / 6 channels
Sampling rate: 48.0 kHz
Stream size: 1.06 GiB (15%)

+ Text #0: French
Format: UTF-8
Stream size:

+ Text #1: English
Format: UTF-8
Stream size:

+ Text #2: Vietnamese
Format: UTF-8
Stream size:

DOWNLOAD

[collapse]

2 comments

Gửi phản hồi