KẺ XÂM NHẬP BÍ ẨN (The Intruder)

Posted by

Ke Xâm Nhâp Bí Ân (2019) 1h 42min | Drama, Horror, Mystery | 17 May 2019 (Vietnam) Summary: A young married couple buys a beautiful house on several acres of land, only to find out that the man they bought it from refuses to let go of the property.
Countries: USALanguages: English
DVD5

Hệ: NTSC
Tỷ lệ: 16:9
Âm thanh: Anh (5.1), Pháp (5.1), Tây Ban Nha (5.1)
Phụ đề: Anh, Pháp, Tây Ban Nha, Trung, Thái, Việt, Hàn
Thời lượng: 1:41:53
Menu: Có
Extra: Có
DOWNLOAD

[collapse]
DVD5 ViE

Hệ: NTSC
Tỷ lệ: 16:9
Âm thanh: Anh (5.1), Việt (5.1)
Phụ đề: Anh, Pháp, Tây Ban Nha, Trung, Thái, Việt, Hàn
Thời lượng: 1:41:53
Menu: Có
Extra: Có
DOWNLOAD

[collapse]
The Intruder 2019 ViE BluRay 1080p DTS-HD MA 5.1 x265 10bit-CHD.mkv

General
Name: The Intruder 2019 ViE BluRay 1080p DTS-HD MA 5.1 x265 10bit-CHD.mkv
Format: Matroska (Version 4)
Duration: 01:42:00.918
Size: 7.907 GiB
Bitrate: 11.1 Mb/s
Frame rate: 23.976

Video
Format: HEVC (Main 10@L4@Main)
Resolution: 1920 x 800 (7 319 kb/s)
Ratio: 2.40:1
Stream size: 5.22 GiB (66%)

+ Audio #0: Vietnamese / DTS (A_DTS / DTS)
Duration: 01:42:00.918
Bit rate: 1 509 kb/s (CBR) / 6 channels
Sampling rate: 48.0 kHz
Stream size: 1.08 GiB (14%)

+ Audio #1: English / DTS-HD Master Audio (A_DTS / DTS XLL)
Duration: 01:42:00.875
Bit rate: 2 166 kb/s (VBR) / 6 channels
Sampling rate: 48.0 kHz
Stream size: 1.54 GiB (20%)

+ Text #0: English
Format: UTF-8
Stream size: 42.9 KiB (0%)

+ Text #1: English
Format: UTF-8
Stream size: 48.5 KiB (0%)

+ Text #2: English
Format: PGS
Stream size: 25.2 MiB (0%)

+ Text #3: English
Format: PGS
Stream size: 28.6 MiB (0%)

+ Text #4: Vietnamese
Format: PGS
Stream size: 25.2 MiB (0%)

+ Text #5: Chinese
Format: PGS
Stream size: 19.9 MiB (0%)

+ Text #6: Chinese
Format: PGS
Stream size: 21.2 MiB (0%)

DOWNLOAD

[collapse]
The Intruder 2019 ViE 1080p BluRay DTS x264-CtrlHD.mkv

General
Name: The Intruder 2019 ViE 1080p BluRay DTS x264-CtrlHD.mkv
Format: Matroska (Version 4)
Duration: 01:42:00.918
Size: 9.412 GiB
Bitrate: 13.2 Mb/s
Frame rate: 23.976

Video
Format: AVC (High@L4.1)
Resolution: 1920 x 800 (9 354 kb/s)
Ratio: 2.40:1
Stream size: 6.67 GiB (71%)

+ Audio #0: Vietnamese / DTS (A_DTS / DTS)
Duration: 01:42:00.918
Bit rate: 1 509 kb/s (CBR) / 6 channels
Sampling rate: 48.0 kHz
Stream size: 1.08 GiB (11%)

+ Audio #1: English / DTS (A_DTS / DTS)
Duration: 01:42:00.875
Bit rate: 1 509 kb/s (CBR) / 6 channels
Sampling rate: 48.0 kHz
Stream size: 1.08 GiB (11%)

+ Audio #2: English / Dolby Digital (A_AC3 / AC-3)
Duration: 01:42:00.896
Bit rate: 640 kb/s (CBR) / 6 channels
Sampling rate: 48.0 kHz
Stream size: 467 MiB (5%)

+ Audio #3: English / AAC (A_AAC-2 / AAC LC)
Duration: 01:42:00.896
Bit rate: 132 kb/s () / 2 channels
Sampling rate: 48.0 kHz
Stream size: 95.8 MiB (1%)

+ Text #0: English
Format: UTF-8
Stream size: 42.9 KiB (0%)

+ Text #1: English
Format: UTF-8
Stream size: 42.8 KiB (0%)

+ Text #2: Danish
Format: UTF-8
Stream size: 36.0 KiB (0%)

+ Text #3: Spanish
Format: UTF-8
Stream size: 41.0 KiB (0%)

+ Text #4: Spanish
Format: UTF-8
Stream size: 36.4 KiB (0%)

+ Text #5: Estonian
Format: UTF-8
Stream size: 34.4 KiB (0%)

+ Text #6: Finnish
Format: UTF-8
Stream size: 33.0 KiB (0%)

+ Text #7: French
Format: UTF-8
Stream size: 26.8 KiB (0%)

+ Text #8: Latvian
Format: UTF-8
Stream size: 36.5 KiB (0%)

+ Text #9: Lithuanian
Format: UTF-8
Stream size: 33.9 KiB (0%)

+ Text #10: Norwegian
Format: UTF-8
Stream size: 35.2 KiB (0%)

+ Text #11: Swedish
Format: UTF-8
Stream size: 34.0 KiB (0%)

+ Text #12: English
Format: UTF-8
Stream size: 48.5 KiB (0%)

+ Text #13: English
Format: UTF-8
Stream size: 48.5 KiB (0%)

+ Text #14: English
Format: UTF-8
Stream size: 76.3 KiB (0%)

+ Text #15: English
Format: UTF-8
Stream size: 86.2 KiB (0%)

+ Text #16: Spanish
Format: UTF-8
Stream size: 67.8 KiB (0%)

+ Text #17: Spanish
Format: UTF-8
Stream size: 75.1 KiB (0%)

+ Text #18: English
Format: PGS
Stream size: 25.2 MiB (0%)

+ Text #19: English
Format: PGS
Stream size: 28.6 MiB (0%)

+ Text #20: Vietnamese
Format: PGS
Stream size: 25.2 MiB (0%)

DOWNLOAD

[collapse]

Gửi phản hồi