NGƯỜI VẬN CHUYỂN (The Transporter)

Posted by

Nguoi Van Chuyen (2002) 1h 32min | Action, Crime, Thriller | 11 October 2002 (USA) Summary: Frank is hired to "transport" packages for unknown clients and has made a very good living doing so. But when asked to move a package that begins moving, complications arise.
Countries: France, USALanguages: English, French, Mandarin
DVD5

Hệ: NTSC
Tỷ lệ: 16:9
Âm thanh: Anh (5.1), Pháp (2.0), Tây Ban Nha (2.0)
Phụ đề: Anh, Tây Ban Nha
Thời lượng: 1:32:03
Menu: Có
Extra: Có
DOWNLOAD

[collapse]
DVD5 ViE

Hệ: NTSC
Tỷ lệ: 16:9
Âm thanh: Anh (5.1), Việt (5.1)
Phụ đề: Anh, Tây Ban Nha, Việt
Thời lượng: 1:32:02
Menu: Có
Extra: Có
DOWNLOAD

[collapse]
The.Transporter.2002.ViE.UNCUT.1080p.BluRay.MPEG-2.DTS-HD.MA.5.1-MRC.VAV.iso

DISC INFO:

Disc Title: The Transporter
Disc Label: TRANSPORTER_MRCREMUX
Disc Size: 21,202,930,749 bytes
Protection: AACS
Extras: BD-Java
BDInfo: 0.7.5.3

PLAYLIST REPORT:

Name: 00603.MPLS
Length: 1:32:51.317 (h:m:s.ms)
Size: 20,516,143,104 bytes
Total Bitrate: 29.46 Mbps

VIDEO:

Codec Bitrate Description
—– ——- ———–
MPEG-2 Video 18830 kbps 1080p / 23.976 fps / 16:9

AUDIO:

Codec Language Bitrate Description
—– ——– ——- ———–
DTS-HD Master Audio Vietnamese 4516 kbps 5.1 / 48 kHz / 4516 kbps / 24-bit (DTS Core: 5.1 / 48 kHz / 1509 kbps / 24-bit)
DTS-HD Master Audio English 4520 kbps 5.1 / 48 kHz / 4520 kbps / 24-bit (DTS Core: 5.1 / 48 kHz / 1509 kbps / 24-bit)

SUBTITLES:

Codec Language Bitrate Description
—– ——– ——- ———–
Presentation Graphics Vietnamese 25.022 kbps
Presentation Graphics German 13.088 kbps
Presentation Graphics English 14.327 kbps
Presentation Graphics Norwegian 12.386 kbps

FILES:

Name Time In Length Size Total Bitrate
—- ——- —— —- ————-
00029.M2TS 0:00:00.000 1:32:51.317 20,516,143,104 29,682

CHAPTERS:

Number Time In Length Avg Video Rate Max 1-Sec Rate Max 1-Sec Time Max 5-Sec Rate Max 5-Sec Time Max 10Sec Rate Max 10Sec Time Avg Frame Size Max Frame Size Max Frame Time
—— ——- —— ————– ————– ————– ————– ————– ————– ————– ————– ————– ————–
1 0:00:00.000 1:32:51.317 18,689 kbps 31,445 kbps 00:47:44.611 28,600 kbps 00:28:12.065 27,976 kbps 00:28:08.853 98,173 bytes 587,869 bytes 00:16:44.044

STREAM DIAGNOSTICS:

File PID Type Codec Language Seconds Bitrate Bytes Packets
—- — —- —– ——– ————– ————– ————- —–
00029.M2TS 4113 (0x1011) 0x02 MPEG-2 5529.399 18,831 13,015,396,548 70,812,983
00029.M2TS 4352 (0x1100) 0x86 DTS-HD MA vie (Vietnamese) 5529.399 4,516 3,121,495,500 17,826,609
00029.M2TS 4353 (0x1101) 0x86 DTS-HD MA eng (English) 5529.399 4,520 3,124,028,616 17,840,515
00029.M2TS 4608 (0x1200) 0x90 PGS vie (Vietnamese) 5529.399 25 17,295,272 100,057
00029.M2TS 4609 (0x1201) 0x90 PGS deu (German) 5529.399 13 9,046,376 52,103
00029.M2TS 4610 (0x1202) 0x90 PGS eng (English) 5529.399 14 9,902,983 56,958
00029.M2TS 4611 (0x1203) 0x90 PGS nor (Norwegian) 5529.399 12 8,561,307 49,347

DOWNLOAD

[collapse]
Transporter.2002.ViE.1080p.BluRay.DTS.x264.mkv

General
Name: Transporter.2002.ViE.1080p.BluRay.DTS.x264.mkv
Format: Matroska (Version 4)
Duration: 01:32:32.548
Size: 11.69 GiB
Bitrate: 18.1 Mb/s
Frame rate: 23.976

Video
Format: AVC (High@L4.1)
Resolution: 1918 x 820 (15.1 Mb/s)
Ratio: 2.35:1
Stream size: 9.74 GiB (83%)

+ Audio #0: Vietnamese / DTS (A_DTS / DTS)
Duration: 01:32:32.523
Bit rate: 1 510 kb/s (CBR) / 6 channels
Sampling rate: 48.0 kHz
Stream size: 999 MiB (8%)

+ Audio #1: English / DTS (A_DTS / DTS)
Duration: 01:32:32.523
Bit rate: 1 510 kb/s (CBR) / 6 channels
Sampling rate: 48.0 kHz
Stream size: 999 MiB (8%)

+ Text #0: English
Format: UTF-8
Stream size: 19.8 KiB (0%)

+ Text #1: English
Format: UTF-8
Stream size: 20.0 KiB (0%)

DOWNLOAD

[collapse]
The.Transporter.2002.ViE.UNCUT.1080p.BluRay.DTS.x264-Skazhutin.VAV.mkv

General
Name: The.Transporter.2002.ViE.UNCUT.1080p.BluRay.DTS.x264-Skazhutin.VAV.mkv
Format: Matroska (Version 2)
Duration: 01:32:32.548
Size: 11.69 GiB
Bitrate: 18.1 Mb/s
Frame rate: 23.976

Video
Format: AVC (High@L4.1)
Resolution: 1918 x 820 (14.7 Mb/s)
Ratio: 2.35:1
Stream size: 9.50 GiB (81%)

+ Audio #0: Vietnamese / DTS (A_DTS / DTS)
Duration: 01:32:32.548
Bit rate: 1 510 kb/s (CBR) / 6 channels
Sampling rate: 48.0 kHz
Stream size: 999 MiB (8%)

+ Audio #1: English / DTS (A_DTS / DTS)
Duration: 01:32:32.548
Bit rate: 1 510 kb/s (CBR) / 6 channels
Sampling rate: 48.0 kHz
Stream size: 999 MiB (8%)

+ Text #0: French
Format: UTF-8
Stream size:

+ Text #1: English
Format: UTF-8
Stream size:

+ Text #2: English
Format: UTF-8
Stream size:

DOWNLOAD

[collapse]
The.Transporter.2002.ViE.UNCUT.720p.BluRay.DTS.x264-DON.VAV.mkv

General
Name: The.Transporter.2002.ViE.UNCUT.720p.BluRay.DTS.x264-DON.VAV.mkv
Format: Matroska (Version 4)
Duration: 01:32:32.523
Size: 5.351 GiB
Bitrate: 8 277 kb/s
Frame rate: 23.976

Video
Format: AVC (High@L5.1)
Resolution: 1280 x 544 (5 255 kb/s)
Ratio: 2.35:1
Stream size: 3.29 GiB (62%)

+ Audio #0: Vietnamese / DTS (A_DTS / DTS)
Duration: 01:32:32.523
Bit rate: 1 510 kb/s (CBR) / 6 channels
Sampling rate: 48.0 kHz
Stream size: 999 MiB (18%)

+ Audio #1: English / DTS (A_DTS / DTS)
Duration: 01:32:32.523
Bit rate: 1 510 kb/s (CBR) / 6 channels
Sampling rate: 48.0 kHz
Stream size: 999 MiB (18%)

+ Text #0: French
Format: UTF-8
Stream size:

+ Text #1: English
Format: UTF-8
Stream size:

+ Text #2: English
Format: UTF-8
Stream size:

DOWNLOAD

[collapse]

Gửi phản hồi