NGƯỜI VẬN CHUYỂN 2 (Transporter 2)

Posted by

Transporter 2 (2005) 1h 27min | Action, Thriller | 3 August 2005 (France) Summary: Mercenary Frank Martin, who specializes moving goods of all kinds, surfaces again this time in Miami, Florida when he's implicated in the kidnapping of the young son of a powerful USA official.
Countries: France, USALanguages: English, French, Italian
DVD5

Hệ: NTSC
Tỷ lệ: 16:9
Âm thanh: Anh (5.1), Bồ Đào Nha (2.0), Tây Ban Nha (2.0)
Phụ đề: Anh, Bồ Đào Nha, Tây Ban Nha
Thời lượng: 1:27:32
Menu: Có
Extra: Có
DOWNLOAD

[collapse]
DVD5 ViE

Hệ: NTSC
Tỷ lệ: 16:9
Âm thanh: Anh (5.1), Việt (5.1)
Phụ đề: Anh, Bồ Đào Nha, Tây Ban Nha, Việt
Thời lượng: 1:27:31
Menu: Có
Extra: Có
DOWNLOAD

[collapse]
Transporter.2.2005.ViE.1080p.BluRay.DTS.x264.mkv

General
Name: Transporter.2.2005.ViE.1080p.BluRay.DTS.x264.mkv
Format: Matroska (Version 4)
Duration: 01:28:01.921
Size: 14.15 GiB
Bitrate: 23.0 Mb/s
Frame rate: 24.000

Video
Format: AVC (High@L4.1)
Resolution: 1916 x 816 (20.0 Mb/s)
Ratio: 2.35:1
Stream size: 12.3 GiB (87%)

+ Audio #0: Vietnamese / DTS (A_DTS / DTS)
Duration: 01:28:01.921
Bit rate: 1 510 kb/s (CBR) / 6 channels
Sampling rate: 48.0 kHz
Stream size: 950 MiB (7%)

+ Audio #1: English / DTS (A_DTS / DTS)
Duration: 01:28:01.921
Bit rate: 1 509 kb/s (CBR) / 6 channels
Sampling rate: 48.0 kHz
Stream size: 950 MiB (7%)

+ Text #0: English
Format: UTF-8
Stream size: 25.8 KiB (0%)

DOWNLOAD

[collapse]
Transporter.2.2005.ViE.UNCUT.1080p.BluRay.DTS.x264-Skazhutin.VAV.mkv

DOWNLOAD

[collapse]
Transporter.2.2005.ViE.UNCUT.1080p.BluRay.VC1.DTS-HD.MA.5.1-MRC.VAV.iso

General
Name: Transporter.2.2005.ViE.UNCUT.1080p.BluRay.DTS.x264-Skazhutin.VAV.mkv
Format: Matroska (Version 4)
Duration: 01:28:08.043
Size: 14.16 GiB
Bitrate: 23.0 Mb/s
Frame rate: 24.000

Video
Format: AVC (High@L4.1)
Resolution: 1916 x 816 (19.5 Mb/s)
Ratio: 2.35:1
Stream size: 12.0 GiB (85%)

+ Audio #0: Vietnamese / DTS (A_DTS / DTS)
Duration: 01:28:08.043
Bit rate: 1 510 kb/s (CBR) / 6 channels
Sampling rate: 48.0 kHz
Stream size: 952 MiB (7%)

+ Audio #1: English / DTS (A_DTS / DTS)
Duration: 01:28:08.043
Bit rate: 1 509 kb/s (CBR) / 6 channels
Sampling rate: 48.0 kHz
Stream size: 951 MiB (7%)

+ Text #0: French
Format: UTF-8
Stream size:

+ Text #1: English
Format: UTF-8
Stream size:

DOWNLOAD

[collapse]
Transporter.2.2005.ViE.UNCUT.720p.BluRay.DTS.x264-CtrlHD.VAV.mkv

General
Name: Transporter.2.2005.ViE.UNCUT.720p.BluRay.DTS.x264-CtrlHD.VAV.mkv
Format: Matroska (Version 2)
Duration: 01:28:12.278
Size: 5.300 GiB
Bitrate: 8 602 kb/s
Frame rate: 23.976

Video
Format: AVC (High@L5.1)
Resolution: 1280 x 544 (5 585 kb/s)
Ratio: 2.35:1
Stream size: 3.33 GiB (63%)

+ Audio #0: Vietnamese / DTS (A_DTS / DTS)
Duration: 01:28:12.278
Bit rate: 1 510 kb/s (CBR) / 6 channels
Sampling rate: 48.0 kHz
Stream size: 952 MiB (18%)

+ Audio #1: English / DTS (A_DTS / DTS)
Duration: 01:28:12.278
Bit rate: 1 510 kb/s (CBR) / 6 channels
Sampling rate: 48.0 kHz
Stream size: 952 MiB (18%)

+ Text #0: French
Format: UTF-8
Stream size:

+ Text #1: English
Format: UTF-8
Stream size:

DOWNLOAD

[collapse]

Gửi phản hồi