DIỆP VẤN NGOẠI TRUYỆN: TRƯƠNG THIÊN CHÍ (Master Z: Ip Man Legacy)

Posted by
Diêp Vân Ngoai Truyên: Truong Thiên Chí (2018) 1h 47min | Action, Crime | 11 January 2019 (Vietnam) Summary: While keeping a low profile after his defeat by Ip Man, Cheung Tin Chi gets into trouble after getting in a fight with a powerful foreigner.
Countries: Hong Kong, ChinaLanguages: Cantonese, Mandarin, English

Hệ: NTSC
Tỷ lệ: 16:9
Âm thanh: Anh (5.1), Pháp (5.1), Trung (5.1)
Phụ đề: Anh, Trung, Tây Ban Nha
Thời lượng: 1:47:37
Menu: Có
Extra: Có
DOWNLOAD

Hệ: NTSC
Tỷ lệ: 16:9
Âm thanh: Trung (5.1), Việt (5.1)
Phụ đề: Anh, Trung, Tây Ban Nha, Việt
Thời lượng: 1:47:37
Menu: Có
Extra: Có
DOWNLOAD

General
Name: IP Man Side Story – Cheung Tin Chi 2018 ViE 2160p WEB-DL AC3 H264.mkv
Format: Matroska (Version 4)
Duration: 01:47:24.458
Size: 3.681 GiB
Bitrate: 4 906 kb/s
Frame rate: 23.937

Video
Format: AVC (High@L5.1)
Resolution: 3840 x 2160 (4 327 kb/s)
Ratio: 16:9
Stream size: 3.25 GiB (88%)

+ Audio #0: Vietnamese / Dolby Digital (A_AC3 / AC-3)
Duration: 01:47:24.374
Bit rate: 192 kb/s (CBR) / 2 channels
Sampling rate: 44.1 kHz
Stream size: 148 MiB (4%)

+ Audio #1: Chinese / Dolby Digital (A_AC3 / AC-3)
Duration: 01:47:24.374
Bit rate: 192 kb/s (CBR) / 2 channels
Sampling rate: 44.1 kHz
Stream size: 148 MiB (4%)

+ Audio #2: Chinese / Dolby Digital (A_AC3 / AC-3)
Duration: 01:47:24.374
Bit rate: 192 kb/s (CBR) / 2 channels
Sampling rate: 44.1 kHz
Stream size: 148 MiB (4%)

DOWNLOAD

General
Name: Master.Z.Ip.Man.Legacy.2018.ViE.1080p.10bit.BluRay.6CH.x265.HEVC-PSA.mkv
Format: Matroska (Version 4)
Duration: 01:47:34.720
Size: 2.185 GiB
Bitrate: 2 907 kb/s
Frame rate: 24.000

Video
Format: HEVC (Main 10@L4@Main)
Resolution: 1920 x 856 (2 059 kb/s)
Ratio: 2.25:1
Stream size: 1.55 GiB (71%)

+ Audio #0: Vietnamese / Dolby Digital (A_AC3 / AC-3)
Duration: 01:47:34.720
Bit rate: 640 kb/s (CBR) / 6 channels
Sampling rate: 48.0 kHz
Stream size: 492 MiB (22%)

+ Audio #1: Chinese / HE-AAC (A_AAC-2 / AAC LC SBR)
Duration: 01:47:34.443
Bit rate: 206 kb/s () / 6 channels
Sampling rate: 48.0 kHz
Stream size: 158 MiB (7%)

+ Text #0: Vietnamese
Format: UTF-8
Stream size: 38.4 KiB (0%)

+ Text #1: English
Format: UTF-8
Stream size: 28.3 KiB (0%)

DOWNLOAD

General
Name: Master Z Ip Man Legacy 2018 ViE 1080p Blu-ray Remux AVC TrueHD Atmos 7.1-HDT.mkv
Format: Matroska (Version 4)
Duration: 01:47:34.710
Size: 21.95 GiB
Bitrate: 29.2 Mb/s
Frame rate: 24.000

Video
Format: AVC (High@L4.1)
Resolution: 1920 x 1080 (18.2 Mb/s)
Ratio: 16:9
Stream size: 13.6 GiB (62%)

+ Audio #0: Vietnamese / DTS-HD Master Audio (A_DTS / DTS ES XLL)
Duration: 01:47:34.710
Bit rate: 5 194 kb/s (VBR) / 8 channels
Sampling rate: 48.0 kHz
Stream size: 3.90 GiB (18%)

+ Audio #1: Chinese / Dolby TrueHD with Dolby Atmos (A_TRUEHD / MLP FBA 16-ch)
Duration: 01:47:34.667
Bit rate: 4 363 kb/s (VBR) / 8 channels
Sampling rate: 48.0 kHz
Stream size: 3.28 GiB (15%)

+ Audio #2: Chinese / Dolby Digital (A_AC3 / AC-3)
Duration: 01:47:34.688
Bit rate: 640 kb/s (CBR) / 6 channels
Sampling rate: 48.0 kHz
Stream size: 492 MiB (2%)

+ Audio #3: Chinese / Dolby Digital Plus (A_EAC3 / E-AC-3)
Duration: 01:47:34.688
Bit rate: 768 kb/s (CBR) / 8 channels
Sampling rate: 48.0 kHz
Stream size: 591 MiB (3%)

+ Text #0: English
Format: PGS
Stream size: 18.3 MiB (0%)

+ Text #1: Chinese
Format: PGS
Stream size: 16.4 MiB (0%)

DOWNLOAD

General
Name: Master Z – Ip Man Legacy 2018 ViE 1080p BluRay TrueHD Atmos 7.1 x264-CHD.mkv
Format: Matroska (Version 4)
Duration: 01:47:34.688
Size: 13.35 GiB
Bitrate: 17.8 Mb/s
Frame rate: 24.000

Video
Format: AVC (High@L4.1)
Resolution: 1920 x 858 (11.0 Mb/s)
Ratio: 2.25:1
Stream size: 8.29 GiB (62%)

+ Audio #0: Vietnamese / DTS (A_DTS / DTS)
Duration: 01:47:34.688
Bit rate: 1 509 kb/s (CBR) / 6 channels
Sampling rate: 48.0 kHz
Stream size: 1.13 GiB (8%)

+ Audio #1: Chinese / Dolby TrueHD with Dolby Atmos (A_TRUEHD / MLP FBA 16-ch)
Duration: 01:47:34.667
Bit rate: 4 363 kb/s (VBR) / 8 channels
Sampling rate: 48.0 kHz
Stream size: 3.28 GiB (25%)

+ Audio #2: Chinese / Dolby Digital Plus (A_EAC3 / E-AC-3)
Duration: 01:47:34.688
Bit rate: 768 kb/s (CBR) / 8 channels
Sampling rate: 48.0 kHz
Stream size: 591 MiB (4%)

+ Text #0: English
Format: UTF-8
Stream size: 28.1 KiB (0%)

+ Text #1: English
Format: PGS
Stream size: 18.3 MiB (0%)

+ Text #2: Chinese
Format: PGS
Stream size: 16.4 MiB (0%)

DOWNLOAD

General
Name: IP Man Side Story – Cheung Tin Chi 2018 ViE 1080p WEB-DL AC3 x264.mkv
Format: Matroska (Version 4)
Duration: 01:47:24.478
Size: 1.985 GiB
Bitrate: 2 646 kb/s
Frame rate: 24.000

Video
Format: AVC (High@L4)
Resolution: 1920 x 1080 (2 067 kb/s)
Ratio: 16:9
Stream size: 1.55 GiB (78%)

+ Audio #0: Vietnamese / Dolby Digital (A_AC3 / AC-3)
Duration: 01:47:24.478
Bit rate: 192 kb/s (CBR) / 2 channels
Sampling rate: 44.1 kHz
Stream size: 148 MiB (7%)

+ Audio #1: Chinese / Dolby Digital (A_AC3 / AC-3)
Duration: 01:47:24.478
Bit rate: 192 kb/s (CBR) / 2 channels
Sampling rate: 44.1 kHz
Stream size: 148 MiB (7%)

+ Audio #2: Chinese / Dolby Digital (A_AC3 / AC-3)
Duration: 01:47:24.478
Bit rate: 192 kb/s (CBR) / 2 channels
Sampling rate: 44.1 kHz
Stream size: 148 MiB (7%)

DOWNLOAD

General
Name: Ip.Man.Legacy.Master.Z.2018.ViE.1080p.WEB-DL.x264.AAC-HDban.mkv
Format: Matroska (Version 4)
Duration: 01:47:24.582
Size: 1.943 GiB
Bitrate: 2 589 kb/s
Frame rate: 24.000

Video
Format: AVC (High@L4)
Resolution: 1920 x 1080 (2 067 kb/s)
Ratio: 16:9
Stream size: 1.55 GiB (80%)

+ Audio #0: Vietnamese / AAC (A_AAC-2 / AAC LC)
Duration: 01:47:24.582
Bit rate: 204 kb/s () / 2 channels
Sampling rate: 44.1 kHz
Stream size: 157 MiB (8%)

+ Audio #1: Chinese / AAC (A_AAC-2 / AAC LC)
Duration: 01:47:24.466
Bit rate: 192 kb/s () / 2 channels
Sampling rate: 44.1 kHz
Stream size: 146 MiB (7%)

+ Audio #2: Chinese / AAC (A_AAC-2 / AAC LC)
Duration: 01:47:24.466
Bit rate: 125 kb/s () / 2 channels
Sampling rate: 44.1 kHz
Stream size: 95.7 MiB (5%)

DOWNLOAD

General
Name: Master.Z.Ip.Man.Legacy.2018.ViE.720p.BluRay.DTS.x264-WiKi.mkv
Format: Matroska (Version 4)
Duration: 01:47:34.688
Size: 5.512 GiB
Bitrate: 7 335 kb/s
Frame rate: 24.000

Video
Format: AVC (High@L4.1)
Resolution: 1280 x 570 (4 730 kb/s)
Ratio: 2.25:1
Stream size: 3.55 GiB (64%)

+ Audio #0: Vietnamese / DTS (A_DTS / DTS)
Duration: 01:47:34.688
Bit rate: 1 509 kb/s (CBR) / 6 channels
Sampling rate: 48.0 kHz
Stream size: 1.13 GiB (21%)

+ Audio #1: Chinese / Dolby Digital (A_AC3 / AC-3)
Duration: 01:47:34.688
Bit rate: 640 kb/s (CBR) / 6 channels
Sampling rate: 48.0 kHz
Stream size: 492 MiB (9%)

+ Audio #2: Chinese / Dolby Digital (A_AC3 / AC-3)
Duration: 01:47:34.688
Bit rate: 448 kb/s (CBR) / 6 channels
Sampling rate: 48.0 kHz
Stream size: 345 MiB (6%)

+ Text #0: English
Format: PGS
Stream size: 18.3 MiB (0%)

+ Text #1: Chinese
Format: UTF-8
Stream size: 23.1 KiB (0%)

+ Text #2: Chinese
Format: UTF-8
Stream size: 23.1 KiB (0%)

DOWNLOAD

General
Name: Master Z – Ip Man Legacy 2018 ViE mHD BluRay DD-EX 5.1 x264-HDT.mkv
Format: Matroska (Version 4)
Duration: 01:47:34.720
Size: 2.885 GiB
Bitrate: 3 839 kb/s
Frame rate: 24.000

Video
Format: AVC (High@L4.1)
Resolution: 1280 x 572 (2 547 kb/s)
Ratio: 2.25:1
Stream size: 1.91 GiB (66%)

+ Audio #0: Vietnamese / Dolby Digital (A_AC3 / AC-3)
Duration: 01:47:34.720
Bit rate: 640 kb/s (CBR) / 6 channels
Sampling rate: 48.0 kHz
Stream size: 492 MiB (17%)

+ Audio #1: Chinese / Dolby Digital (A_AC3 / AC-3)
Duration: 01:47:34.688
Bit rate: 640 kb/s (CBR) / 6 channels
Sampling rate: 48.0 kHz
Stream size: 492 MiB (17%)

+ Text #0: English
Format: UTF-8
Stream size: 28.2 KiB (0%)

+ Text #1: English
Format: PGS
Stream size: 18.3 MiB (1%)

DOWNLOAD

Gửi phản hồi